Билитис / Bilitis (Дэвид Хэмилтон / David Hamilton) [1977 г., Франция, Италия, Драма, мелодрама, для взрослых, BDRip 720p] AVO (Алексеев) + Sub Ger, Eng + Original Fre

Ответить на тему
 
Автор Сообщение

user ®

Стаж: 7 лет 7 месяцев

Сообщений: 20008

Пост Пост: #1 от 20-Янв-2015 19:06

[Цитировать]

Билитис / Bilitis
Год выпуска: 1977
Страна: Франция Италия
Студия: Ectafilms, Films 21, Mars International
Жанр: Драма, мелодрама, для взрослых
Продолжительность: 01:35:12
Перевод: Авторский (одноголосый закадровый) - Алексеев
Субтитры: английские, немецкие
Оригинальная аудиодорожка: французский
Режиссер: Дэвид Хэмилтон / David Hamilton
В ролях: Патти Д’Арбанвиль, Мона Кристенсен, Бернар Жиродо, Матьё Карьер, Жиль Колер, Ирка Бошенко, Жаклин Фонтен, Мари-Тереза Комон, Жермэн Дельба, Мадлен Дамьен
Описание: Молодая французкая писательница Катрин Брейя, издавшая первый роман ещё в возрасте 20 лет, предложила Хэмилтону в один из излюбленных мотивов своего творчества интимный мир пятнадцатилетней воспитанницы интерната для девушек. Билитис влюблена в фотографа Люка, но её не привлекает физическая близость с мужчиной, напротив хочется нежных и возвышенных чувств. Страдает от грубости, невнимательности мужа также и прекрасная Мелисса, подруга родителей Билитис, которая пригласила девушку к себе на летние каникулы.
Краткие мгновения любовной связи Билитис и Мелиссы должны свидетельствовать о родстве душ. Но более взрослая, знающая жизнь Мелисса отказывается от продолжения этого романа. Тогда Билитис решает найти для неё чуткого и приятного во всех отношениях любовника, не подозревая, что в результате сама столкнётся с первой в своей судьбе драмой ещё детской, наивной, но от этого не менее горькой.
Доп. информация:

Качество: BDRip 720p
Формат: MKV
Видео кодек: MPEG4 AVC
Аудио кодек: DTS
Видео: 1208x720, 24.000 fps, ~5876 Kbps
Аудио №1: Русский DTS Audio 2.0, 48 kHz, 16 bit, ~1509 kbps – авторский (одноголосый закадровый) |Антон Алексеев|
Аудио №9: Французский DTS Audio 2.0, 48 kHz, 24 bit, ~1509 kbps
Субтитры: Английские, немецкие
-
...из книги «3500 кинорецензий»
Эротическая молодёжная мелодрама
43-летний английский фотограф Дэвид Хэмилтон, сделавший себе имя благодаря снимкам «нимфеток» (девушек-подростков) в эротических журналах, дебютировал в кино на волне успеха так называемого soft porno. Он продолжил линию красивой, сентиментальной любовной мелодрамы, которая была заявлена тоже подвизавшимся прежде в области фотографии, но в миг прославившимся двумя годами ранее Жюстом Жэкином («Эмманюэль»). А молодая французская писательница Катрин Брейя, которая издала первый роман ещё в возрасте двадцати лет, предложила Хэмилтону в фильме «Билитис» один из излюбленных мотивов своего творчества — интимный мир пятнадцатилетней воспитанницы интерната для девушек.
Билитис влюблена в фотографа Люка, но её ещё не привлекает физическая близость с мужчиной, напротив — хочется нежных и возвышенных чувств. Также страдает от грубости и невнимательности своего мужа прекрасная Мелисса, подруга родителей Билитис, которая пригласила девушку к себе на летние каникулы. Краткие мгновения любовной связи Билитис и Мелиссы должны свидетельствовать о родстве их душ. Но более взрослая, знающая жизнь Мелисса отказывается от продолжения этого внезапного романа. Тогда Билитис решает найти для неё чуткого и приятного во всех отношениях любовника, не подозревая, что в результате сама столкнётся с первой в собственной судьбе драмой — ещё детской, наивной, но от этого не менее горькой.
Казалось бы, столь благодатный для тонкой и чувствительной мелодрамы сюжет должен оказаться беспроигрышным. Но режиссёр, являясь профессионалом в запечатлении обнажённых тел, к сожалению, не был способен почувствовать «обнажённую душу». Американка Патти Д’Арбанвиль, которой, между прочим, было уже 25 лет во время съёмок, естественна и непосредственна в роли Билитис. И всё-таки эту ленту губит манерная, претенциозная, «заэстетизированная» режиссура. Прав американский критик Леонард Молтин: «Всё воображено, нет сути».
Информация
  • Рип от CtrlHD
  • Сохранены оригинальные чаптеры как на Blu-ray.
  • За Blu-Ray спасибо suzaku.
  • Источник: Bilitis 1977 1080p GER Blu-ray AVC DTS-HD MA 2.0
    Сэмпл
Скриншоты MediaInfo
General
Unique ID : 195822497741171781584768449668026514945 (0x93520A8D4AB65A3D8DAE757D2FBCBE01)
Complete name : Bilitis [Билити].mkv
Format : Matroska
Format version : Version 2
File size : 6.00 GiB
Duration : 1h 35mn
Overall bit rate : 9 022 Kbps
Movie name : Bilitis (1977) - Release for HDCLUB
Encoded date : UTC 2015-01-18 09:29:59
Writing application : mkvmerge v5.7.0 ('The Whirlwind') built on Jul 8 2012 20:08:51
Writing library : libebml v1.2.3 + libmatroska v1.3.0
Video
ID : 1
Format : AVC
Format/Info : Advanced Video Codec
Format profile : High@L4.1
Format settings, CABAC : Yes
Format settings, ReFrames : 9 frames
Codec ID : V_MPEG4/ISO/AVC
Duration : 1h 35mn
Bit rate : 5 824 Kbps
Width : 1 208 pixels
Height : 720 pixels
Display aspect ratio : 1.678
Frame rate mode : Constant
Frame rate : 24.000 fps
Color space : YUV
Chroma subsampling : 4:2:0
Bit depth : 8 bits
Scan type : Progressive
Bits/(Pixel*Frame) : 0.279
Stream size : 3.87 GiB (65%)
Writing library : x264 core 142 r2479kMod dd79a61
Encoding settings : cabac=1 / ref=9 / deblock=1:-3:-3 / analyse=0x3:0x133 / me=umh / subme=10 / psy=1 / fade_compensate=0.00 / psy_rd=1.10:0.00 / mixed_ref=1 / me_range=16 / chroma_me=1 / trellis=2 / 8x8dct=1 / cqm=0 / deadzone=21,11 / fast_pskip=0 / chroma_qp_offset=-2 / threads=6 / lookahead_threads=1 / sliced_threads=0 / nr=0 / decimate=0 / interlaced=0 / bluray_compat=0 / constrained_intra=0 / fgo=0 / bframes=8 / b_pyramid=2 / b_adapt=2 / b_bias=0 / direct=3 / weightb=1 / open_gop=0 / weightp=2 / keyint=250 / keyint_min=24 / scenecut=40 / intra_refresh=0 / rc_lookahead=60 / rc=crf / mbtree=0 / crf=15.0000 / qcomp=0.70 / qpmin=0 / qpmax=69 / qpstep=4 / vbv_maxrate=10000 / vbv_bufsize=10000 / crf_max=0.0 / nal_hrd=none / filler=0 / ip_ratio=1.30 / pb_ratio=1.20 / aq=1:1.00
Language : French
Default : Yes
Forced : No
Audio #1
ID : 2
Format : DTS
Format/Info : Digital Theater Systems
Mode : 16
Format settings, Endianness : Big
Codec ID : A_DTS
Duration : 1h 35mn
Bit rate mode : Constant
Bit rate : 1 509 Kbps
Channel(s) : 2 channels
Channel positions : Front: L R
Sampling rate : 48.0 KHz
Bit depth : 16 bits
Compression mode : Lossy
Stream size : 1.00 GiB (17%)
Title : |Одноголосый закадровый, А.Алексеев|
Language : Russian
Default : Yes
Forced : No
Audio #2
ID : 3
Format : DTS
Format/Info : Digital Theater Systems
Mode : 16
Format settings, Endianness : Big
Codec ID : A_DTS
Duration : 1h 35mn
Bit rate mode : Constant
Bit rate : 1 509 Kbps
Channel(s) : 2 channels
Channel positions : Front: L R
Sampling rate : 48.0 KHz
Bit depth : 24 bits
Compression mode : Lossy
Stream size : 1.00 GiB (17%)
Language : English
Default : No
Forced : No
Text #1
ID : 4
Format : UTF-8
Codec ID : S_TEXT/UTF8
Codec ID/Info : UTF-8 Plain Text
Title : English
Language : English
Default : No
Forced : No
Text #2
ID : 5
Format : UTF-8
Codec ID : S_TEXT/UTF8
Codec ID/Info : UTF-8 Plain Text
Title : German
Language : German
Default : No
Forced : No
Menu
00:00:00.000 : en:Chapter 1
00:00:21.167 : en:Chapter 2
00:03:32.542 : en:Chapter 3
00:12:16.583 : en:Chapter 4
00:28:27.250 : en:Chapter 5
00:38:17.917 : en:Chapter 6
00:52:02.542 : en:Chapter 7
01:11:09.208 : en:Chapter 8
01:30:08.917 : en:Chapter 9
01:33:40.875 : en:Chapter 10

-
Релиз
Скачать

Скачать торрент!

Как скачивать? · Что такое торрент? · Рейтинг и ограничения

Сайт не распространяет и не хранит электронные версии произведений, а лишь предоставляет доступ к создаваемому пользователями каталогу ссылок на торрент-файлы, которые содержат только списки хеш-сумм

[Профиль] [ЛС]
Показать сообщения:    
Ответить на тему

Текущее время: Сегодня 05:06

Часовой пояс: GMT + 4



Вы не можете начинать темы
Вы не можете отвечать на сообщения
Вы не можете редактировать свои сообщения
Вы не можете удалять свои сообщения
Вы не можете голосовать в опросах
Вы не можете прикреплять файлы к сообщениям
Вы не можете скачивать файлы