Любимый, будь со мной / Моя любовь всегда со мной / Mere Sajana Saath Nibhana (Раджеш Вакиль / Rajesh Vakil) [1992, Индия, Мелодрама, SATRip] MVO (Zee Tv)

Ответить на тему
 
Автор Сообщение

user ®

Стаж: 12 лет

Сообщений: 15092

Пост Пост: #1 от 20-Янв-2015 12:54

[Цитировать]

Любимый, будь со мной / Моя любовь всегда со мной / Mere Sajana Saath Nibhana
Страна: Индия
Жанр: Мелодрама
Год выпуска: 1992
Продолжительность: 02:28:08
Перевод: Профессиональный (многоголосый закадровый) Zee Tv
Cубтитры: нет
Режиссер: Раджеш Вакиль / Rajesh Vakil
В ролях: Митхун Чакраборти, Джухи Чавла, Шанти Прия, Прем Чопра, Кулбушан Кхарбанда, Шакти Капур, Тинну Ананд, Нирупа Рой, Аруна Ирани, Шива Риндани
Описание: Канхайя (Митхун Чакраборти) живет со своей матерью (Нирупа Рой) в маленькой деревне, зарабатывая на жизнь пением и танцами на свадьбах, днях рождения и других важных церемониях вместе с Бхолой (Шакти Капур), которого, когда тот потерялся в детстве на ярмарке, приютила его мать. Дочь влиятельного местного помещика (Кулбушан Кхарбанда) Чанчал (Шанти Прия), влюбляется в Канхайю, и просит, чтобы тот пришел к ее отцу с предложением руки и сердца. Мать Канхайи вместе с Бхолой отправляются к помещику, но в доме их жестоко оскорбляют, избивают и выгоняют вон. В результате мать Канхайи умирает, оставив его жаждущим отомстить за ее смерть высокомерному тхакуру. Когда помещик узнает, что свадьба была целиком и полностью инициативой его дочери, он приносит Канхайе извинения, но, тем не менее, решает выдать Чанчал замуж за другого. В это же время Канхайя знакомится с Джанки (Джухи Чавла), девушкой, живущей со своим опекуном Даялом (Тинну Ананд), который работает на другого помещика - Пратапа Сингха (Прем Чопра). Джанки любит Канхайю, но мысль о том, чтобы жениться на ней, даже не приходит тому в голову - слишком велико его к ней уважение, граничащее с преклонением...
Доп. информация: Релиз: Кинозал.ТВ
Запись фильма, риппер, удаление рекламы: oktober (Спасибо!)
Сэмпл: http://multi-up.com/1027677
Качество видео: SATRip
Формат видео: AVI
Видео: XviD MPEG-4, 640x320 (2.00:1), 25 fps, 1499 kbps avg
Аудио: AC3 Dolby Digital, 48 kHz, 2/0 (L,R) ch, 192 kbps
MediaInfo
General
Complete name : F:\Moya.Lubov.Vsegda.So.Mnoy.1992.XviD.SATRip.oktober.avi
Format : AVI
Format/Info : Audio Video Interleave
File size : 1.76 GiB
Duration : 2h 28mn
Overall bit rate : 1 701 Kbps
Writing application : VirtualDubMod 1.5.10.2 (build 2540/release)
Writing library : VirtualDubMod build 2540/release
Video
ID : 0
Format : MPEG-4 Visual
Format profile : Simple@L1
Format settings, BVOP : No
Format settings, QPel : No
Format settings, GMC : No warppoints
Format settings, Matrix : Default (H.263)
Codec ID : XVID
Codec ID/Hint : XviD
Duration : 2h 28mn
Bit rate : 1 499 Kbps
Width : 640 pixels
Height : 320 pixels
Display aspect ratio : 2.000
Frame rate : 25.000 fps
Resolution : 24 bits
Colorimetry : 4:2:0
Scan type : Progressive
Bits/(Pixel*Frame) : 0.293
Stream size : 1.55 GiB (88%)
Writing library : Lavc53.33.0
Audio
ID : 1
Format : AC-3
Format/Info : Audio Coding 3
Codec ID : 2000
Duration : 2h 28mn
Bit rate mode : Constant
Bit rate : 192 Kbps
Channel(s) : 2 channels
Channel positions : L R
Sampling rate : 48.0 KHz
Stream size : 203 MiB (11%)
Alignment : Split accross interleaves
Interleave, duration : 40 ms (1.00 video frame)
Interleave, preload duration : 500 ms
Скриншоты
Скачать

Скачать торрент! Любимый, будь со мной / Моя любовь всегда со мной / Mere Sajana Saath Nibhana (Раджеш Вакиль / Rajesh Vakil) [1992, Индия, Мелодрама, SATRip] MVO (Zee Tv)

Как скачивать? · Что такое торрент? · Рейтинг и ограничения

Сайт не распространяет и не хранит электронные версии произведений, а лишь предоставляет доступ к создаваемому пользователями каталогу ссылок на торрент-файлы, которые содержат только списки хеш-сумм

[Профиль] [ЛС]
Показать сообщения:    
Ответить на тему

Текущее время: Сегодня 07:03

Часовой пояс: GMT + 4



Вы не можете начинать темы
Вы не можете отвечать на сообщения
Вы не можете редактировать свои сообщения
Вы не можете удалять свои сообщения
Вы не можете голосовать в опросах
Вы не можете прикреплять файлы к сообщениям
Вы не можете скачивать файлы