Седьмой сын / The Seventh Son (Сергей Бодров) [2015, США, Великобритания, Канада, Приключения, Семейный, Фэнтези, CamRip] Dub

Ответить на тему
 
Автор Сообщение

user ®

Стаж: 7 лет 7 месяцев

Сообщений: 20008

Пост Пост: #1 от 19-Янв-2015 20:09

[Цитировать]

Седьмой сын / The Seventh Son
-Страна: США, Великобритания, Канада,
Жанр: Зарубежный фильм, Приключения, Семейный, Фэнтези
Год выпуска: 2015
Продолжительность: 01:32:09
Перевод: Профессиональный (дублированный) звук из кинотеатра
Cубтитры: нет
Режиссер: Сергей Бодров-В ролях: Кит Харингтон, Джулианна Мур, Джефф Бриджес, Бен Барнс, Оливия Уильямс, Алисия Викандер, Джимон Хонсу, Джейсон Скотт Ли, Антье Трауэ, Фрейзер Айтчесон
Роли дублировали: Владимир Антоник, Владимир Антипов
Описание: Рассказ в фильме пойдет про парня, который, так уж вышло, стал седьмым сыном седьмого сына. А только такой человек может стать ведьмаком. Но этого недостаточно, чтобы именовать себя так — необходимо пройти массу тренировок, а также усердно учиться. Ведь главное оружие ведьмака — это его ум. Хоть в народе их не любят, но кто-то же обязан убивать нечисть, хранить землю от сил зла и делать всю грязную работу? Юный Том Уорд попробует стать тем самым учеником ведьмака.-Доп. информация:
- Претендентками на роль Элис были Дженнифер Лоуренс, Диана Агрон, Имоджен Путс и Фелисити Джонс.
- На роль Тома Уорда рассматривались Алекс Петтифер, Шайло Фернандез, Сэм Клафлин, Калеб Лэндри Джонс и Джеймс Фрешвилл.
- Съёмки начались 19 марта 2012 года в Ванкувере.
- Седьмой сын, снят по детскому роману Джозефа Дилейни «Ученик ведьмака».
- Первоначальная дата релиза фильма была назначена на 22 февраля 2013 года. С тех пор премьера фильма неоднократно переносилась, по причинам затянувшегося пост-продакшна и разрыва отношений между студиями Legendary Pictures и Warner Bros. В результате, новый прокатчик картины — Universal Studios, перенес премьеру фильма на 2015 год.-Качество видео: CamRip
Формат видео: AVI
Видео кодек: XviD
Аудио кодек: MP3
Видео: Xvid 720x304 29.97fps 1918kbps
Аудио: MP3 48000Hz stereo 192kbps-
MediaInfo
Format : AVI
Format/Info : Audio Video Interleave
File size : 1.37 GiB
Duration : 1h 32mn
Overall bit rate : 2 122 Kbps
Writing application : VirtualDubMod 1.5.10.2 (build 2540/release)
Writing library : VirtualDubMod build 2540/release
Video
ID : 0
Format : MPEG-4 Visual
Format profile : Advanced Simple@L5
Format settings, BVOP : 2
Format settings, QPel : No
Format settings, GMC : No warppoints
Format settings, Matrix : Default (MPEG)
Codec ID : XVID
Codec ID/Hint : XviD
Duration : 1h 32mn
Bit rate : 1 919 Kbps
Width : 720 pixels
Height : 304 pixels
Display aspect ratio : 2.35:1
Frame rate : 29.970 fps
Color space : YUV
Chroma subsampling : 4:2:0
Bit depth : 8 bits
Scan type : Progressive
Compression mode : Lossy
Bits/(Pixel*Frame) : 0.292
Stream size : 1.24 GiB (90%)
Writing library : XviD 1.2.1 (UTC 2008-12-04)
Audio
ID : 1
Format : MPEG Audio
Format version : Version 1
Format profile : Layer 3
Mode : Joint stereo
Mode extension : MS Stereo
Codec ID : 55
Codec ID/Hint : MP3
Duration : 1h 32mn
Bit rate mode : Constant
Bit rate : 192 Kbps
Channel(s) : 2 channels
Sampling rate : 48.0 KHz
Compression mode : Lossy
Stream size : 127 MiB (9%)
Alignment : Aligned on interleaves
Interleave, duration : 33 ms (1.00 video frame)
Interleave, preload duration : 504 ms
Скриншот c названием фильма Скриншоты
Скачать

Скачать торрент!

Как скачивать? · Что такое торрент? · Рейтинг и ограничения

Сайт не распространяет и не хранит электронные версии произведений, а лишь предоставляет доступ к создаваемому пользователями каталогу ссылок на торрент-файлы, которые содержат только списки хеш-сумм

[Профиль] [ЛС]
Показать сообщения:    
Ответить на тему

Текущее время: Сегодня 22:30

Часовой пояс: GMT + 4



Вы не можете начинать темы
Вы не можете отвечать на сообщения
Вы не можете редактировать свои сообщения
Вы не можете удалять свои сообщения
Вы не можете голосовать в опросах
Вы не можете прикреплять файлы к сообщениям
Вы не можете скачивать файлы