Мир, созданный без изъяна / The World Made Straight (Дэвид Буррис / David Burris) [2015, США, драма, WEB-DLRip] VO (PashaUp)

Ответить на тему
 
Автор Сообщение

user ®

Стаж: 7 лет 7 месяцев

Сообщений: 20008

Пост Пост: #1 от 19-Янв-2015 03:06

[Цитировать]

Мир, созданный без изъяна / The World Made Straight
Страна: США, Bifrost Pictures, Dreambridge Films, Myriad Pictures
Жанр: драма
Год выпуска: 2015
Продолжительность: 01:59:22
Перевод: Одноголосый закадровый PashaUp
Cубтитры: нет
Оригинальная аудиодорожка: нет
Режиссер: Дэвид Буррис / David Burris
В ролях: Ноа Уайли, Джереми Ирвин, Минка Келли, Стив Эрл, Эдэлейд Клеменс
Описание: Семнадцатилетний Трэвис однажды летом забредает в лес, на частную территорию около его дома в Северной Каролине, и обнаруживает целую рощу марихуаны, после чего попадает в медвежий капкан. Проведя в ловушке несколько часов, он, наконец, освобожден местным фермером, хозяином делянки. Однако с этого момента он уже не может спокойно относиться к тем порокам, которыми пропитано это небольшое сельское сообщество в Аппалачах.
Вскоре Тревис уезжает из родительского дома и поселяется у учителя Леонарда, который живет в трейлере на окраине города, балуется наркотиками и читает журналы об американской гражданской войне. Судьбы этих людей переплетаются, когда ужасное прошлое и болезненное настоящее городка приводит к ожесточенному сведению счетов, в котором с одной стороны оказывается замешан фермер с марихуаной, а с другой стороны эхом отдается кровавая резня времен гражданской войны, которая продолжает разделять местное сообщество.

Качество видео: WEB-DLRip
Формат видео: AVI
Видео: XviD, 720х304, 2,35:1, 1351 Кбит/сек, 23,976 кадра/сек, 0,257 Бит/(Пиксели*Кадры)
Аудио: AC3, 384 Кбит/сек, 6 каналов, 48,0 КГц
MediaInfo
Общее
Полное имя                               : D:\movies\ СПАМ
Формат                                   : AVI
Формат/Информация                        : Audio Video Interleave
Размер файла                             : 1,45 Гбайт
Продолжительность                        : 1 ч. 59 м.
Общий поток                              : 1744 Кбит/сек
Программа кодирования                    : VirtualDubMod 1.5.10.2 (build 2540/release)
Библиотека кодирования                   : VirtualDubMod build 2540/release
Видео
Идентификатор                            : 0
Формат                                   : MPEG-4 Visual
Профиль формата                          : Advanced Simple@L5
Параметр BVOP формата                    : 2
Параметр QPel формата                    : Нет
Параметр GMC формата                     : Без точки перехода
Параметр матрицы формата                 : Default (MPEG)
Идентификатор кодека                     : XVID
Идентификатор кодека/Подсказка           : XviD
Продолжительность                        : 1 ч. 59 м.
Битрейт                                  : 1351 Кбит/сек
Ширина                                   : 720 пикселей
Высота                                   : 304 пикселя
Соотношение сторон                       : 2,35:1
Частота кадров                           : 23,976 кадра/сек
Цветовое пространство                    : YUV
Субдискретизация насыщенности            : 4:2:0
Битовая глубина                          : 8 бит
Тип развёртки                            : Прогрессивная
Метод сжатия                             : С потерями
Бит/(Пиксели*Кадры)                      : 0.257
Размер потока                            : 1,13 Гбайт (77%)
Библиотека кодирования                   : XviD 1.2.1 (UTC 2008-12-04)
Аудио
Идентификатор                            : 1
Формат                                   : AC-3
Формат/Информация                        : Audio Coding 3
Расширение режима                        : CM (complete main)
Параметр Endianness формата              : Big
Идентификатор кодека                     : 2000
Продолжительность                        : 1 ч. 59 м.
Вид битрейта                             : Постоянный
Битрейт                                  : 384 Кбит/сек
Каналы                                   : 6 каналов
Расположение каналов                     : Front: L C R, Side: L R, LFE
Частота                                  : 48,0 КГц
Битовая глубина                          : 16 бит
Метод сжатия                             : С потерями
Размер потока                            : 328 Мбайт (22%)
Выравнивание                             : Разделение по промежуткам
Продолжительность промежутка             : 42  мс. (1,00 видеокадр)
Время предзагрузки промежутка            : 500  мс.
Скриншот c названием фильма Скриншоты
Скачать

Скачать торрент!

Как скачивать? · Что такое торрент? · Рейтинг и ограничения

Сайт не распространяет и не хранит электронные версии произведений, а лишь предоставляет доступ к создаваемому пользователями каталогу ссылок на торрент-файлы, которые содержат только списки хеш-сумм

[Профиль] [ЛС]
Показать сообщения:    
Ответить на тему

Текущее время: Сегодня 12:11

Часовой пояс: GMT + 4



Вы не можете начинать темы
Вы не можете отвечать на сообщения
Вы не можете редактировать свои сообщения
Вы не можете удалять свои сообщения
Вы не можете голосовать в опросах
Вы не можете прикреплять файлы к сообщениям
Вы не можете скачивать файлы