Брут / Brutus (Светлана Филиппова) [2014, авторская анимация, DVDScreener]

Ответить на тему
 
Автор Сообщение

user ®

Стаж: 7 лет 7 месяцев

Сообщений: 20008

Пост Пост: #1 от 19-Янв-2015 00:00

[Цитировать]

Брут / Brutus
Страна: Россия
Жанр: авторская анимация
Продолжительность: 00:12:48
Год выпуска: 2014
Русские субтитры: нет
Режиссёр: Светлана Филиппова
Роли озвучивали: Алексей Вертков
Описание: Анимационная экранизация прозы Людвика Ашкенази. Это увиденная глазами собаки история уничтожения пражских евреев во время войны и начинается (как и заканчивается) фильм с документальных кадров оккупированного города. Брут – немецкая овчарка, живущая у молодой женщины. Брута забирает немецкий офицер, чтобы сделать из него караульную собаку, сопровождающую евреев в лагеря смерти. Но его трудно обучать, потому что «Он относится с доверием ко всем людям».
Доп. информация: Отобран во фестивалях :
- Кинофестиваль в Кракове, Краков (Польша), 2014
- Международный кинофестиваль им. А. Тарковского 'Зеркало', Иваново (Россия), 2014
- Международный фестиваль анимационных фильмов в Анси, Анси (Франция), 2014
- Международный фестиваль документальных и анимационных фильмов в Лейпциг, Лейпциг (Германия), 2014
Получил престижный приз имени Александра Татарского "За высший пилотаж" на Открытом российском фестивале анимационного кино в Суздале в 2014 году.
Качество: DVDScreener
Формат: MKV
Видео: V_MPEG4/ISO/AVC, 9 056 Kbps, 1024x576, 25fps
Аудио: MPEG Audio, 44kHz, 2ch, 128 Kbps
Субтитры: не требуются
Подробные технические данные
VideoID : 1Format : AVCFormat/Info : Advanced Video CodecFormat profile : Baseline@L3.2Format settings, CABAC : NoFormat settings, ReFrames : 1 frameFormat settings, GOP : M=1, N=12Codec ID : V_MPEG4/ISO/AVCDuration : 12mn 48sBit rate : 9 056 KbpsWidth : 1 024 pixelsHeight : 576 pixelsDisplay aspect ratio : 16:9Frame rate mode : ConstantFrame rate : 25.000 fpsColor space : YUVChroma subsampling : 4:2:0Bit depth : 8 bitsScan type : ProgressiveBits/(Pixel*Frame) : 0.614Stream size : 830 MiB (97%)Default : YesForced : No
AudioID : 2Format : MPEG AudioFormat version : Version 1Format profile : Layer 2Codec ID : A_MPEG/L2Codec ID/Hint : MP2Duration : 12mn 48sBit rate mode : ConstantBit rate : 128 KbpsChannel count : 2 channelsSampling rate : 44.1 KHzCompression mode : LossyStream size : 11.7 MiB (1%)Default : YesForced : No
Скриншоты
Скачать

Скачать торрент!

Как скачивать? · Что такое торрент? · Рейтинг и ограничения

Сайт не распространяет и не хранит электронные версии произведений, а лишь предоставляет доступ к создаваемому пользователями каталогу ссылок на торрент-файлы, которые содержат только списки хеш-сумм

[Профиль] [ЛС]
Показать сообщения:    
Ответить на тему

Текущее время: Сегодня 02:21

Часовой пояс: GMT + 4



Вы не можете начинать темы
Вы не можете отвечать на сообщения
Вы не можете редактировать свои сообщения
Вы не можете удалять свои сообщения
Вы не можете голосовать в опросах
Вы не можете прикреплять файлы к сообщениям
Вы не можете скачивать файлы