Жизнь за жизнь / Jung (Санджай Гупта / Sanjay Gupta) [2000, Индия, Боевик, DVDRip] MVO

Ответить на тему
 
Автор Сообщение

user ®

Стаж: 13 лет

Сообщений: 15070

Пост Пост: #1 от 19-Янв-2015 00:00

[Цитировать]

Жизнь за жизнь / Jung
Страна: Индия
Жанр: Боевик
Год выпуска: 2000
Продолжительность: 02:29:49
Перевод: Профессиональный (многоголосый закадровый)
Cубтитры: нет
Режиссер: Санджай Гупта / Sanjay Gupta
В ролях: Санджай Датт, Джеки Шрофф, Адитья Панчоли, Равина Тандон, Шилпа Шетти, Саурабх Шукла, Нирадж Вора, Яш Триведи, Санджай Мишра, Сачин Кхедекар
Описание: Сахил, сын инспектора полиции Чаухана, смертельно болен. Для спасения его жизни срочно требуется пересадка костного мозга. Но подходящего донора найти никак не удается. Единственный, кто может помочь — сидящий в тюрьме хладнокровный убийца Балли. Но тот даже и слышать не хочет о донорской помощи, тем более что ненавидит Чаухана, так как считает того виновным в своем аресте…
Доп. информация: Исходник [url=http://***/forum/viewtopic.php?t=3147949]DVD-5[/url] (СПАСИБО! bilcom)
Сэмпл: http://multi-up.com/1027387
Качество видео: DVDRip
Формат видео: AVI
Видео: XviD build 50, 672x272 (2.47:1), 23.976 fps, 1258 kbps avg
Аудио: AC3 Dolby Digital, 48 kHz, 2/0 (L,R) ch, 192 kbps
MediaInfo
General
Complete name : D:\Zhizn.za.zhizn.2000.XviD.DVDRip-Dego.avi
Format : AVI
Format/Info : Audio Video Interleave
File size : 1.46 GiB
Duration : 2h 29mn
Overall bit rate : 1 396 Kbps
Writing application : VirtualDubMod 1.5.10.2 (build 2540/release)
Writing library : VirtualDubMod build 2540/release
Video
ID : 0
Format : MPEG-4 Visual
Format profile : AdvancedSimple@L5
Format settings, BVOP : Yes
Format settings, QPel : No
Format settings, GMC : No warppoints
Format settings, Matrix : Custom
Codec ID : XVID
Codec ID/Hint : XviD
Duration : 2h 29mn
Bit rate : 1 259 Kbps
Width : 672 pixels
Height : 272 pixels
Display aspect ratio : 2.471
Frame rate : 23.976 fps
Resolution : 24 bits
Colorimetry : 4:2:0
Scan type : Progressive
Bits/(Pixel*Frame) : 0.287
Stream size : 1.32 GiB (90%)
Writing library : XviD 1.2.1 (UTC 2008-12-04)
Audio
ID : 1
Format : MPEG Audio
Format version : Version 1
Format profile : Layer 3
Codec ID : 55
Codec ID/Hint : MP3
Duration : 2h 29mn
Bit rate mode : Constant
Bit rate : 128 Kbps
Channel(s) : 2 channels
Sampling rate : 48.0 KHz
Resolution : 16 bits
Stream size : 137 MiB (9%)
Alignment : Aligned on interleaves
Interleave, duration : 42 ms (1.00 video frame)
Interleave, preload duration : 504 ms
Writing library : LAME3.98r
Encoding settings : -m j -V 4 -q 2 -lowpass 17 -b 128
Скриншоты
Скачать

Скачать торрент! Жизнь за жизнь / Jung (Санджай Гупта / Sanjay Gupta) [2000, Индия, Боевик, DVDRip] MVO

Как скачивать? · Что такое торрент? · Рейтинг и ограничения

Сайт не распространяет и не хранит электронные версии произведений, а лишь предоставляет доступ к создаваемому пользователями каталогу ссылок на торрент-файлы, которые содержат только списки хеш-сумм

[Профиль] [ЛС]
Показать сообщения:    
Ответить на тему

Текущее время: Сегодня 15:19

Часовой пояс: GMT + 4



Вы не можете начинать темы
Вы не можете отвечать на сообщения
Вы не можете редактировать свои сообщения
Вы не можете удалять свои сообщения
Вы не можете голосовать в опросах
Вы не можете прикреплять файлы к сообщениям
Вы не можете скачивать файлы