Первопроходец / Pioneer (Эрик Шёлдбьерг / Erik Skjoldbjærg) [2013, Норвегия, Германия, Швеция, Франция, Финляндия, триллер, BDRip 720p] DVO (студия NLS) + Original (Nor) + Subs (Rus, Eng, Nor)

Ответить на тему
 
Автор Сообщение

user ®

Стаж: 7 лет 7 месяцев

Сообщений: 20008

Пост Пост: #1 от 19-Янв-2015 00:00

[Цитировать]

Первопроходец / Pioneer Страна: Норвегия, Германия, Швеция, Франция, Финляндия
Жанр: триллер
Год выпуска: 2013
Продолжительность: 01:51:14
Перевод: Профессиональный (двухголосый закадровый) студия NLS
Cубтитры: английские (fansub), русские (notabenoid), норвежские
Оригинальная аудиодорожка: норвежский (мультиязыковая: английский, норвежский)
Режиссер: Эрик Шёлдбьерг / Erik Skjoldbjærg
В ролях: Уэс Бентли, Аксель Хенни, Стивен Лэнг, Стефани Сигман, Джонатан ЛаПалья, Эни Даль Торп, Ёрген Лангхелле, Андре Эриксен, Арни Линдтнер Нэсс, Йеркер Фальстрём
Описание:
Начало 1980-х гг. В Северном море обнаружены огромные запасы нефти и газа. В начале норвежского нефтяного бума власти намерены любой ценой доставлять на берег «черное» и «голубое золото» планеты по трубопроводу с глубины 500 метров, перед этим проводя разведку месторождения. Профессиональный дайвер Петтер, одержимый идеей достижения дна Норвежского моря, — полон решимости, силы и мужества, чтобы браться за самую опасную в мире работу и спуститься на эту глубину. Но неожиданная случайность меняет все. И теперь Петтер отправляется в опасное путешествие, в котором он теряет из вида того, кто дергает за ниточки в этой многомиллионной игре, постепенно понимая, что он оказывается на его пути и что его жизнь находится под угрозой.
- || -Тип релиза: BDRip 720p (рип от Kuningas@CRiSC)

Контейнер: MKV
Видео: AVC (x264), 1280x536 (2,40:1) at 24,000 fps, 10500 Кbps, 0.638 bpp
Аудио 1: AC3; 192 Kbps; CBR; 2 ch; 48 khz | DVO - студия NLS |
Аудио 2: AC3-EX; 640 Kbps; CBR; 6 ch; 48 khz | Норвежский |
Формат субтитров: softsub (SRT)
Скриншоты || x264 Info || MediaInfo || Notes
MediaInfo
General
Unique ID                                : 173220923156625367777577429627198244855 (0x825122E3E9B24ED581F912612AD407F7)
Complete name                            : Первопроходец.2013.P.720p.BluRay.x264-CRiSC.mkv
Format                                   : Matroska
Format version                           : Version 4 / Version 2
File size                                : 8.79 GiB
Duration                                 : 1h 51mn
Overall bit rate                         : 11.3 Mbps
Movie name                               : Pioneer [2013] [720p] DVO
Encoded date                             : UTC 2015-01-15 04:49:22
Writing application                      : mkvmerge v7.5.0 ('Glass Culture') 32bit built on Jan  4 2015 16:37:25
Writing library                          : libebml v1.3.1 + libmatroska v1.4.2
Video
ID                                       : 1
Format                                   : AVC
Format/Info                              : Advanced Video Codec
Format profile                           : High@L4.1
Format settings, CABAC                   : Yes
Format settings, ReFrames                : 12 frames
Codec ID                                 : V_MPEG4/ISO/AVC
Duration                                 : 1h 51mn
Bit rate                                 : 10.5 Mbps
Width                                    : 1 280 pixels
Height                                   : 536 pixels
Display aspect ratio                     : 2.40:1
Frame rate mode                          : Constant
Frame rate                               : 24.000 fps
Color space                              : YUV
Chroma subsampling                       : 4:2:0
Bit depth                                : 8 bits
Scan type                                : Progressive
Bits/(Pixel*Frame)                       : 0.638
Stream size                              : 7.97 GiB (91%)
Title                                    : profile.php?mode=viewprofile&u=22488948
Writing library                          : x264 core 142 r2389kMod 956c8d8
Encoding settings                        : cabac=1 / ref=12 / deblock=1:-3:-3 / analyse=0x3:0x133 / me=umh / subme=11 / psy=1 / fade_compensate=0.00 / psy_rd=1.00:0.00 / mixed_ref=1 / me_range=64 / chroma_me=1 / trellis=2 / 8x8dct=1 / cqm=0 / deadzone=21,11 / fast_pskip=0 / chroma_qp_offset=-2 / threads=12 / lookahead_threads=3 / sliced_threads=0 / nr=0 / decimate=0 / interlaced=0 / bluray_compat=0 / constrained_intra=0 / fgo=0 / bframes=11 / b_pyramid=2 / b_adapt=2 / b_bias=0 / direct=3 / weightb=1 / open_gop=0 / weightp=2 / keyint=250 / keyint_min=24 / scenecut=40 / intra_refresh=0 / rc_lookahead=40 / rc=2pass / mbtree=0 / bitrate=10500 / ratetol=1.0 / qcomp=0.70 / qpmin=0 / qpmax=69 / qpstep=4 / cplxblur=20.0 / qblur=0.5 / vbv_maxrate=50000 / vbv_bufsize=62500 / nal_hrd=none / filler=0 / ip_ratio=1.10 / pb_ratio=1.10 / aq=1:0.60
Language                                 : Norwegian
Default                                  : Yes
Forced                                   : No
Color primaries                          : BT.709
Transfer characteristics                 : BT.709
Matrix coefficients                      : BT.709
Audio #1
ID                                       : 2
Format                                   : AC-3
Format/Info                              : Audio Coding 3
Mode extension                           : CM (complete main)
Format settings, Endianness              : Big
Codec ID                                 : A_AC3
Duration                                 : 1h 51mn
Bit rate mode                            : Constant
Bit rate                                 : 192 Kbps
Channel(s)                               : 2 channels
Channel positions                        : Front: L R
Sampling rate                            : 48.0 KHz
Bit depth                                : 16 bits
Compression mode                         : Lossy
Stream size                              : 153 MiB (2%)
Title                                    : DVO [NLS]
Language                                 : Russian
Default                                  : Yes
Forced                                   : No
Audio #2
ID                                       : 3
Format                                   : AC-3
Format/Info                              : Audio Coding 3
Mode extension                           : CM (complete main)
Format settings, Endianness              : Big
Codec ID                                 : A_AC3
Duration                                 : 1h 51mn
Bit rate mode                            : Constant
Bit rate                                 : 640 Kbps
Channel(s)                               : 6 channels
Channel positions                        : Front: L C R, Side: L R, LFE
Sampling rate                            : 48.0 KHz
Bit depth                                : 16 bits
Compression mode                         : Lossy
Stream size                              : 509 MiB (6%)
Language                                 : Norwegian
Default                                  : No
Forced                                   : No
Text #1
ID                                       : 4
Format                                   : UTF-8
Codec ID                                 : S_TEXT/UTF8
Codec ID/Info                            : UTF-8 Plain Text
Title                                    : fansub
Language                                 : English
Default                                  : No
Forced                                   : No
Text #2
ID                                       : 5
Format                                   : UTF-8
Codec ID                                 : S_TEXT/UTF8
Codec ID/Info                            : UTF-8 Plain Text
Title                                    : [Unfragged, tegularius]
Language                                 : Russian
Default                                  : No
Forced                                   : No
Text #3
ID                                       : 6
Format                                   : UTF-8
Codec ID                                 : S_TEXT/UTF8
Codec ID/Info                            : UTF-8 Plain Text
Language                                 : Norwegian
Default                                  : No
Forced                                   : No
Menu
00:00:00.000                             : en:00:00:00.000
00:08:49.750                             : en:00:08:49.750
00:20:23.583                             : en:00:20:23.583
00:28:24.042                             : en:00:28:24.042
00:38:57.833                             : en:00:38:57.833
00:49:50.333                             : en:00:49:50.333
01:02:21.458                             : en:01:02:21.458
01:10:53.083                             : en:01:10:53.083
01:18:03.125                             : en:01:18:03.125
01:28:41.250                             : en:01:28:41.250
01:38:23.000                             : en:01:38:23.000
01:44:53.125                             : en:01:44:53.125
x264 Infox264 [info]: frame I:928 Avg QP:17.63 size:101477
x264 [info]: frame P:32094 Avg QP:18.47 size: 71552
x264 [info]: frame B:127154 Avg QP:19.21 size: 49987
x264 [info]: consecutive B-frames: 1.5% 2.2% 5.4% 14.9% 16.7% 43.2% 6.2% 2.7% 2.1% 2.1% 2.0% 0.9% Цитата: Аудио дорожка №1 и RU субтитры взяты с этой [url=http://***/forum/viewtopic.php?t=4901684]раздачи[/url], thx: arxivariys
Скачать

Скачать торрент!

Как скачивать? · Что такое торрент? · Рейтинг и ограничения

Сайт не распространяет и не хранит электронные версии произведений, а лишь предоставляет доступ к создаваемому пользователями каталогу ссылок на торрент-файлы, которые содержат только списки хеш-сумм

[Профиль] [ЛС]
Показать сообщения:    
Ответить на тему

Текущее время: Сегодня 18:20

Часовой пояс: GMT + 4



Вы не можете начинать темы
Вы не можете отвечать на сообщения
Вы не можете редактировать свои сообщения
Вы не можете удалять свои сообщения
Вы не можете голосовать в опросах
Вы не можете прикреплять файлы к сообщениям
Вы не можете скачивать файлы