Маньчжурский кандидат / The Manchurian Candidate (Джонатан Демме / Jonathan Demme) [2004, США, триллер, драма, детектив, BDRemux 1080p] AVO (Живов) + DVO (Tycoon) + DVO + Sub Rus, Eng + Original Eng

Ответить на тему
 
Автор Сообщение

user ®

Стаж: 7 лет 7 месяцев

Сообщений: 20008

Пост Пост: #1 от 19-Янв-2015 00:00

[Цитировать]

Маньчжурский кандидат / The Manchurian Candidate
«Всё под контролем»
- -Страна: США
Жанр: триллер, драма, детектив
Год выпуска: 2004
Продолжительность: 02:09:52-Перевод: Авторский (одноголосый закадровый) Ю.Живов
Перевод 2: Профессиональный (двухголосый закадровый) Tycoon
Перевод 3: Профессиональный (двухголосый закадровый)
Cубтитры: русские,английские
Оригинальная аудиодорожка: английский-Режиссер: Джонатан Демме / Jonathan Demme
В ролях: Дензел Вашингтон, Джеффри Райт, Пабло Шрайбер, Энтони Маки, Дориан Миссик, Хосе Пабло Кантилльо, Тедди Данн, Хоакин Перез-Кэмпбелл, Тим Арц, Робин Хичкок-Описание: Во время операции «Буря в пустыне» сержант Рэймонд Шоу совершил подвиг, спас своих братьев по оружию, попавших в засаду, пока командир отряда Бен Марко был без сознания. Прошло несколько лет. Шоу, подбадриваемый матерью-сенатором, рвется в вице-президенты, а у Бена начинаются странные видения. Он уже не уверен, что тогда в Кувейте все было именно так, как он помнит. Поиски правды могут стоить Марко жизни.-Сэмпл:
Тип релиза: BDRemux 1080p
Контейнер: MKV
Видео: MPEG-2 ~32934 kbps 1920x1080 / 23.976 fps
Аудио: Russian: 48 kHz, DTS, 3/2 (L,C,R,l,r) + LFE ch, ~1509.00 kbps |Одноголосый закадровый, Живов|,
Аудио 2: Russian: 48 kHz, AC3, 3/2 (L,C,R,l,r) + LFE ch, ~448.00 kbps |Двухголосый закадровый, Tycoon|
Аудио 3: Russian: 48 kHz, AC3, 3/2 (L,C,R,l,r) + LFE ch, ~448.00 kbps |Двухголосый закадровый|
Аудио 4: English: 48 kHz, DTS, 3/2 (L,C,R,l,r) + LFE ch, ~1509.00 kbps
Формат субтитров: softsub (SRT)-MediaInfo
Complete name : D:\Downloads\Маньчжурский кандидат (The Manchurian Candidate) 2004 (BDRemux 1080p).mkv
Format : Matroska
Format version : Version 4 / Version 2
File size : 33.4 GiB
Duration : 2h 9mn
Overall bit rate mode : Variable
Overall bit rate : 36.9 Mbps
Encoded date : UTC 2015-01-18 10:13:53
Writing application : mkvmerge v7.5.0 ('Glass Culture') 64bit built on Jan 4 2015 16:48:44
Writing library : libebml v1.3.1 + libmatroska v1.4.2
_STATISTICS_WRITING_APP : mkvmerge v7.5.0 ('Glass Culture') 64bit built on Jan 4 2015 16:48:44
_STATISTICS_WRITING_DATE_UT : 2015-01-18 10:13:53
_STATISTICS_TAGS : BPS DURATION NUMBER_OF_FRAMES NUMBER_OF_BYTES
DURATION : 02:01:49.229000000
NUMBER_OF_FRAMES : 1643
NUMBER_OF_BYTES : 111799
Video
ID : 1
Format : MPEG Video
Format version : Version 2
Format profile : Main@High
Format settings, BVOP : Yes
Format settings, Matrix : Default
Format settings, GOP : M=3, N=12
Codec ID : V_MPEG2
Codec ID/Info : MPEG 1 or 2 Video
Duration : 2h 9mn
Bit rate mode : Variable
Bit rate : 32.2 Mbps
Maximum bit rate : 36.0 Mbps
Width : 1 920 pixels
Height : 1 080 pixels
Display aspect ratio : 16:9
Frame rate mode : Constant
Frame rate : 23.976 fps
Color space : YUV
Chroma subsampling : 4:2:0
Bit depth : 8 bits
Scan type : Progressive
Compression mode : Lossy
Bits/(Pixel*Frame) : 0.648
Time code of first frame : 00:59:59:00
Time code source : Group of pictures header
GOP, Open/Closed : Open
Stream size : 29.2 GiB (87%)
Title : MPEG-2 1080p
Default : Yes
Forced : No
GOP, Open/Closed of first f : Closed
Audio #1
ID : 2
Format : DTS
Format/Info : Digital Theater Systems
Mode : 16
Format settings, Endianness : Big
Codec ID : A_DTS
Duration : 2h 9mn
Bit rate mode : Constant
Bit rate : 1 509 Kbps
Channel(s) : 6 channels
Channel positions : Front: L C R, Side: L R, LFE
Sampling rate : 48.0 KHz
Bit depth : 24 bits
Compression mode : Lossy
Stream size : 1.37 GiB (4%)
Title : Russian |Одноголосый закадровый, Живов|
Language : Russian
Default : No
Forced : No
Audio #2
ID : 3
Format : AC-3
Format/Info : Audio Coding 3
Mode extension : CM (complete main)
Format settings, Endianness : Big
Codec ID : A_AC3
Duration : 2h 9mn
Bit rate mode : Constant
Bit rate : 448 Kbps
Channel(s) : 6 channels
Channel positions : Front: L C R, Side: L R, LFE
Sampling rate : 48.0 KHz
Bit depth : 16 bits
Compression mode : Lossy
Stream size : 416 MiB (1%)
Title : Russian |Двухголосый закадровый, Tycoon|
Language : Russian
Default : Yes
Forced : No
Audio #3
ID : 4
Format : AC-3
Format/Info : Audio Coding 3
Mode extension : CM (complete main)
Format settings, Endianness : Big
Codec ID : A_AC3
Duration : 2h 9mn
Bit rate mode : Constant
Bit rate : 448 Kbps
Channel(s) : 6 channels
Channel positions : Front: L C R, Side: L R, LFE
Sampling rate : 48.0 KHz
Bit depth : 16 bits
Compression mode : Lossy
Stream size : 416 MiB (1%)
Title : Russian |Двухголосый закадровый|
Language : Russian
Default : No
Forced : No
Audio #4
ID : 5
Format : DTS
Format/Info : Digital Theater Systems
Mode : 16
Format settings, Endianness : Big
Codec ID : A_DTS
Duration : 2h 9mn
Bit rate mode : Constant
Bit rate : 1 509 Kbps
Channel(s) : 6 channels
Channel positions : Front: L C R, Side: L R, LFE
Sampling rate : 48.0 KHz
Bit depth : 24 bits
Compression mode : Lossy
Stream size : 1.37 GiB (4%)
Title : English
Language : English
Default : No
Forced : No
Text #1
ID : 6
Format : UTF-8
Codec ID : S_TEXT/UTF8
Codec ID/Info : UTF-8 Plain Text
Title : English
Language : English
Default : No
Forced : No
Text #2
ID : 7
Format : UTF-8
Codec ID : S_TEXT/UTF8
Codec ID/Info : UTF-8 Plain Text
Title : Russian
Language : Russian
Default : No
Forced : No
Menu
00:00:00.000 : en:
00:06:37.395 : en:
00:11:45.704 : en:
00:17:08.482 : en:
00:25:20.181 : en:
00:32:55.261 : en:
00:41:30.527 : en:
00:47:57.373 : en:
01:01:52.333 : en:
01:07:26.000 : en:
01:13:20.854 : en:
01:24:22.599 : en:
01:34:50.475 : en:
01:39:36.095 : en:
01:46:23.417 : en:
02:00:52.618 : en:
02:03:31.404 : en:
Скриншоты Цитата:
Сохранены оригинальные чаптеры как на Blu-ray.
Дорожка № 1 получена наложением чистого голоса на центр декодированного DTS
Скачать

Скачать торрент!

Как скачивать? · Что такое торрент? · Рейтинг и ограничения

Сайт не распространяет и не хранит электронные версии произведений, а лишь предоставляет доступ к создаваемому пользователями каталогу ссылок на торрент-файлы, которые содержат только списки хеш-сумм

[Профиль] [ЛС]
Показать сообщения:    
Ответить на тему

Текущее время: Сегодня 17:43

Часовой пояс: GMT + 4



Вы не можете начинать темы
Вы не можете отвечать на сообщения
Вы не можете редактировать свои сообщения
Вы не можете удалять свои сообщения
Вы не можете голосовать в опросах
Вы не можете прикреплять файлы к сообщениям
Вы не можете скачивать файлы