Из тьмы / Из темноты / Out of the Dark / Wui wan yeh (Джеффри Лау / Jeffrey Lau) [1995, Гонконг, мистика, ужасы, комедия, WEB-DLRip] VO (Акира)

Ответить на тему
 
Автор Сообщение

user ®

Стаж: 13 лет

Сообщений: 15071

Пост Пост: #1 от 17-Янв-2015 23:15

[Цитировать]

Из тьмы / Из темноты / Out of the Dark / Wui wan yeh
Страна: Гонконг
Жанр: мистика, ужасы, комедия
Год выпуска: 1995
Продолжительность: 01:19:17
Перевод: Одноголосый (закадровый) [Акира]
Оригинальная аудиодорожка: нет
Cубтитры: нет
Режиссер: Джеффри Лау / Jeffrey Lau
В ролях:Чи Фай Чоу, Стивен Чоу, Вунь Лин Хау, Сует Лам, Кин-Ян Ли, Лик-Чи Ли, Ка-Ян Леунг, Ло Хунг
Описание:Леон - охотник за привидениями. Его держат в психушке, но он не особо-то против, прекрасно зная, что всегда сможет выбраться, когда понадобится его помощь. А на этот раз помощь его нужна компашке полицейских охранников, которые должны охранять квартирный комплекс как раз в ту ночь, когда в дом должны вернуться для мести души двух убитых жильцов.


Качество: WEB-DLRip
Контейнер: AVI
Видео: 720x384 (1.88:1), 25 fps, XviD build 65 ~2278 kbps avg, 0.33 bit/pixel
Аудио: 48 kHz, AC3 Dolby Digital, 2/0 (L,R) Surround Encoded ch, ~192 kbpsl

MI
Общее
Полное имя : C:\Users\Вячеслав\Downloads\Iz temnoti.avi
Формат : AVI
Формат/Информация : Audio Video Interleave
Профиль формата : OpenDML
Настройки формата : rec
Размер файла : 1,37 Гбайт
Продолжительность : 1 ч. 19 м.
Общий поток : 2477 Кбит/сек
Программа кодирования : AVI-Mux GUI 1.17.8.3, Feb 16 201019:42:50
Видео
Идентификатор : 0
Формат : MPEG-4 Visual
Профиль формата : Advanced Simple@L5
Параметр BVOP формата : 2
Параметр QPel формата : Нет
Параметр GMC формата : Без точки перехода
Параметр матрицы формата : Default (MPEG)
Идентификатор кодека : XVID
Идентификатор кодека/Подсказка : XviD
Продолжительность : 1 ч. 19 м.
Битрейт : 2280 Кбит/сек
Ширина : 720 пикселей
Высота : 384 пикселя
Соотношение сторон : 1,85:1
Частота кадров : 25,000 кадров/сек
Цветовое пространство : YUV
Субдискретизация насыщенности : 4:2:0
Битовая глубина : 8 бит
Тип развёртки : Прогрессивная
Метод сжатия : С потерями
Бит/(Пиксели*Кадры) : 0.330
Размер потока : 1,26 Гбайт (92%)
Библиотека кодирования : XviD 65
Аудио
Идентификатор : 1
Формат : AC-3
Формат/Информация : Audio Coding 3
Профиль формата : Dolby Digital
Расширение режима : CM (complete main)
Параметр Endianness формата : Big
Идентификатор кодека : 2000
Продолжительность : 1 ч. 19 м.
Вид битрейта : Постоянный
Битрейт : 192 Кбит/сек
Каналы : 2 канала
Расположение каналов : Front: L R
Частота : 48,0 КГц
Битовая глубина : 16 бит
Метод сжатия : С потерями
Размер потока : 109 Мбайт (8%)
Выравнивание : Соединение по промежуткам
Продолжительность промежутка : 64 мс. (1,60 видеокадра)
Время предзагрузки промежутка : 192 мс.
Заголовок : akira
Скриншоты
Скачать

Скачать торрент! Из тьмы / Из темноты / Out of the Dark / Wui wan yeh (Джеффри Лау / Jeffrey Lau) [1995, Гонконг, мистика, ужасы, комедия, WEB-DLRip] VO (Акира)

Как скачивать? · Что такое торрент? · Рейтинг и ограничения

Сайт не распространяет и не хранит электронные версии произведений, а лишь предоставляет доступ к создаваемому пользователями каталогу ссылок на торрент-файлы, которые содержат только списки хеш-сумм

[Профиль] [ЛС]
Показать сообщения:    
Ответить на тему

Текущее время: Сегодня 17:30

Часовой пояс: GMT + 4



Вы не можете начинать темы
Вы не можете отвечать на сообщения
Вы не можете редактировать свои сообщения
Вы не можете удалять свои сообщения
Вы не можете голосовать в опросах
Вы не можете прикреплять файлы к сообщениям
Вы не можете скачивать файлы