Душа как красная икра / Фея дождя / Destova vila (Милан Цислар / Milan Cieslar) [2010, Чехия, Сказка, Фэнтези, HDTVRip 720p] DVO (Детский) + Original Cze

Ответить на тему
 
Автор Сообщение

user ®

Стаж: 7 лет 7 месяцев

Сообщений: 20008

Пост Пост: #1 от 17-Янв-2015 20:09

[Цитировать]

Душа как красная икра / Фея дождя / Destova vila
Страна: Чехия
Жанр: Сказка, Фэнтези
Год выпуска: 2010
Продолжительность: 1:36:04
Перевод: Профессиональный (двухголосый закадровый) Детский
Cубтитры: нет
Оригинальная аудиодорожка: чешский
Режиссер: Милан Цислар / Milan Cieslar
В ролях: Ленка Власакова, Вика Керекеш, Якуб Готтвальд, Мирослав Донутил, Симона Сташова, Яромир Дулава, Итка Седлачкова, Анета Крейчикова, Каролина Кайзерова, Станислав Зиндулка
Описание: Четыре основных элемента вселенной - Земля, Огонь, Воздух и Вода - отправляются на Землю для очередной инспекции за жизнью людей. Вода предстает в виде водной феи, но для путешествия выбирает другой облик. Путешествуя в виде бедной женщины, она видит, насколько изменился мир. К ее удивлению и разочарованию, Вода обнаруживает, что людей теперь интересуют лишь деньги, а любовь и доброта исчезают...
Доп. информация: imdb
дорожка с переводом взята из [url=http://***/forum/viewtopic.php?t=4381729]этой[/url] раздачи, за что отдельная благодарность [url=http://***/forum/profile.php?mode=viewprofile&u=11538352]vedigo[/url]
Сэмпл: http://rusfolder.com/42757636
Тип релиза: HDTVRip 720p
Контейнер: MKV
Видео: MPEG4 Video (H264) 1278x720 (16:9) 25fps 5064 Кбит/сек
Аудио 1: Russian, Dolby AC3 48.0 KHz 2ch. 192kbps
Аудио 2: Czech, Dolby AC3 48.0 KHz 6ch 448kbps
MediaInfo
General
Unique ID : 190297271489789563976731114333267433780 (0x8F29EBDD938DF0DCB7443BDFB0BA1934)
Complete name : H:\HDTV\Фея дождя 2010\Destova.vila.2010.720p.HDTV.x264.Rus.Cze.mkv
Format : Matroska
Format version : Version 4 / Version 2
File size : 3.91 GiB
Duration : 1h 36mn
Overall bit rate : 5 820 Kbps
Encoded date : UTC 2014-12-20 05:03:03
Writing application : mkvmerge v6.2.0 ('Promised Land') built on Apr 28 2013 12:22:01
Writing library : libebml v1.3.0 + libmatroska v1.4.0
Video
ID : 1
Format : AVC
Format/Info : Advanced Video Codec
Format profile : High@L4.1
Format settings, CABAC : Yes
Format settings, ReFrames : 9 frames
Codec ID : V_MPEG4/ISO/AVC
Duration : 1h 36mn
Bit rate : 5 064 Kbps
Width : 1 278 pixels
Height : 720 pixels
Display aspect ratio : 16:9
Frame rate mode : Constant
Frame rate : 25.000 fps
Color space : YUV
Chroma subsampling : 4:2:0
Bit depth : 8 bits
Scan type : Progressive
Bits/(Pixel*Frame) : 0.220
Stream size : 3.40 GiB (87%)
Title : V_Destova.vila.720p.x264
Writing library : x264 core 142 r2409 d6b4e63
Encoding settings : cabac=1 / ref=9 / deblock=1:-3:-3 / analyse=0x3:0x133 / me=tesa / subme=10 / psy=1 / psy_rd=1.05:0.00 / mixed_ref=1 / me_range=24 / chroma_me=1 / trellis=2 / 8x8dct=1 / cqm=0 / deadzone=21,11 / fast_pskip=0 / chroma_qp_offset=-2 / threads=12 / lookahead_threads=2 / sliced_threads=0 / nr=0 / decimate=0 / interlaced=0 / bluray_compat=0 / constrained_intra=0 / bframes=8 / b_pyramid=2 / b_adapt=2 / b_bias=0 / direct=3 / weightb=1 / open_gop=0 / weightp=2 / keyint=250 / keyint_min=25 / scenecut=40 / intra_refresh=0 / rc_lookahead=60 / rc=crf / mbtree=0 / crf=16.0 / qcomp=0.65 / qpmin=0 / qpmax=69 / qpstep=4 / vbv_maxrate=62500 / vbv_bufsize=78125 / crf_max=0.0 / nal_hrd=none / filler=0 / ip_ratio=1.40 / pb_ratio=1.30 / aq=1:0.80
Language : Czech
Default : Yes
Forced : No
Audio #1
ID : 2
Format : AC-3
Format/Info : Audio Coding 3
Mode extension : CM (complete main)
Format settings, Endianness : Big
Codec ID : A_AC3
Duration : 1h 36mn
Bit rate mode : Constant
Bit rate : 192 Kbps
Channel(s) : 2 channels
Channel positions : Front: L R
Sampling rate : 48.0 KHz
Bit depth : 16 bits
Compression mode : Lossy
Delay relative to video : 20ms
Stream size : 132 MiB (3%)
Title : MVO канал "Детский"
Language : Russian
Default : Yes
Forced : No
Audio #2
ID : 3
Format : AC-3
Format/Info : Audio Coding 3
Mode extension : CM (complete main)
Format settings, Endianness : Big
Codec ID : A_AC3
Duration : 1h 36mn
Bit rate mode : Constant
Bit rate : 448 Kbps
Channel(s) : 6 channels
Channel positions : Front: L C R, Side: L R, LFE
Sampling rate : 48.0 KHz
Bit depth : 16 bits
Compression mode : Lossy
Stream size : 308 MiB (8%)
Title : оригинальная дорожка
Language : Czech
Default : No
Forced : No
Скриншоты
Скачать

Скачать торрент!

Как скачивать? · Что такое торрент? · Рейтинг и ограничения

Сайт не распространяет и не хранит электронные версии произведений, а лишь предоставляет доступ к создаваемому пользователями каталогу ссылок на торрент-файлы, которые содержат только списки хеш-сумм

[Профиль] [ЛС]
Показать сообщения:    
Ответить на тему

Текущее время: Сегодня 02:26

Часовой пояс: GMT + 4



Вы не можете начинать темы
Вы не можете отвечать на сообщения
Вы не можете редактировать свои сообщения
Вы не можете удалять свои сообщения
Вы не можете голосовать в опросах
Вы не можете прикреплять файлы к сообщениям
Вы не можете скачивать файлы