Старые клячи (Эльдар Рязанов) [2000, комедия, DVDRip-AVC] Sub Rus

Ответить на тему
 
Автор Сообщение

user ®

Стаж: 7 лет 7 месяцев

Сообщений: 20008

Пост Пост: #1 от 17-Янв-2015 20:09

[Цитировать]

Старые клячи
Жанр: комедия
Год выпуска: 2000
Продолжительность: 02:07:04
Cубтитры: русские
Режиссёр: Эльдар Рязанов
В ролях: Людмила Гурченко, Лия Ахеджакова, Светлана Крючкова, Ирина Купченко, Николай Фоменко, Валентин Гафт, Роман Карцев, Михаил Евдокимов, Мамука Кикалейшвили, Нина Тер-Осипян...
Описание: Трудные времена наступили для четырех неразлучных подруг. Совсем недавно благополучные и уважаемые труженицы, они вынуждены приспосабливаться к непростым реалиям сегодняшней действительности. Остроумные и находчивые женщины, оскорбленные и униженные хамоватыми и наглыми дельцами, находят пути борьбы с новыми «хозяевами жизни».
Сэмпл: http://multi-up.com/1027135
Качество видео: DVDRip-AVC [url=http://***/forum/viewtopic.php?t=63863]Исходник[/url]
Формат видео: MKV
Видео: 688x572 (1.283) @ 734x572, 25.000 fps, AVC, ~2090 Kbps, 0.212 bits/pixel
Аудио: 48.0 KHz, AC3, 6 ch, 384 Kbps

Log
avs4x264.exe: -L x264_64.exe --pass 2 --bitrate 2090 --preset medium --ref 10 --deblock -1:-1 --merange 32 --bframes 10 --direct auto --b-adapt 2 --trellis 2 --no-fast-pskip --psy-rd 1.00:0.10 --partitions all --subme 10 --me umh --rc-lookahead 50 --sar 16:15 --stats
raw [info]: 688x572p 16:15 @ 25/1 fps (cfr)
x264 [info]: using SAR=16/15
x264 [info]: using cpu capabilities: MMX2 SSE2Fast LZCNT
x264 [info]: profile High, level 3.1
x264 [info]: frame I:1137 Avg QP:18.24 size: 61998
x264 [info]: frame P:39043 Avg QP:21.07 size: 24014
x264 [info]: frame B:150416 Avg QP:23.77 size: 6539
x264 [info]: consecutive B-frames: 1.2% 2.0% 7.0% 18.7% 15.4% 44.1% 4.9% 1.9% 2.2% 1.5% 1.1%
x264 [info]: mb I I16..4: 3.3% 81.2% 15.5%
x264 [info]: mb P I16..4: 0.7% 12.5% 1.5% P16..4: 42.4% 25.9% 15.8% 0.6% 0.1% skip: 0.5%
x264 [info]: mb B I16..4: 0.1% 1.0% 0.1% B16..8: 45.3% 11.0% 2.6% direct: 7.5% skip:32.4% L0:40.5% L1:43.7% BI:15.8%
x264 [info]: 8x8 transform intra:84.2% inter:73.8%
x264 [info]: direct mvs spatial:97.8% temporal:2.2%
x264 [info]: coded y,uvDC,uvAC intra: 94.1% 93.4% 69.5% inter: 32.7% 40.6% 9.1%
x264 [info]: i16 v,h,dc,p: 38% 16% 7% 39%
x264 [info]: i8 v,h,dc,ddl,ddr,vr,hd,vl,hu: 11% 9% 3% 9% 15% 15% 14% 12% 13%
x264 [info]: i4 v,h,dc,ddl,ddr,vr,hd,vl,hu: 14% 8% 2% 8% 15% 15% 14% 12% 12%
x264 [info]: i8c dc,h,v,p: 39% 20% 22% 20%
x264 [info]: Weighted P-Frames: Y:5.3% UV:2.6%
x264 [info]: ref P L0: 39.2% 15.5% 20.9% 5.3% 6.0% 3.2% 3.9% 1.7% 2.3% 1.6% 0.2% 0.0%
x264 [info]: ref B L0: 75.5% 12.3% 4.5% 2.5% 1.7% 1.5% 1.2% 0.5% 0.2%
x264 [info]: ref B L1: 94.1% 5.9%
x264 [info]: kb/s:2089.97
x264 [total]: encoded 190596 frames, 10.81 fps, 2089.97 kb/s
Сравнение
[url=http://***/forum/viewtopic.php?t=4117932]http://***/forum/viewtopic.php?t=4117932[/url]
http://screenshotcomparison.com/comparison/109928/picture:3
MediaInfo
General
Unique ID : 244459462747439678709676640225131340828 (0xB7E92E112A233401BFAEF272E665A41C)
Complete name : C:\Старые клячи.mkv
Format : Matroska
Format version : Version 4 / Version 2
File size : 2.20 GiB
Duration : 2h 7mn
Overall bit rate : 2 476 Kbps
Encoded date : UTC 2015-01-16 15:12:10
Writing application : mkvmerge v7.5.0 ('Glass Culture') 64bit built on Jan 4 2015 16:48:44
Writing library : libebml v1.3.1 + libmatroska v1.4.2
DURATION : 02:07:03.840000000
NUMBER_OF_FRAMES : 190596
NUMBER_OF_BYTES : 1991697496
_STATISTICS_WRITING_APP : mkvmerge v7.5.0 ('Glass Culture') 64bit built on Jan 4 2015 16:48:44
_STATISTICS_WRITING_DATE_UT : 2015-01-16 15:12:10
_STATISTICS_TAGS : BPS DURATION NUMBER_OF_FRAMES NUMBER_OF_BYTES
Video
ID : 1
Format : AVC
Format/Info : Advanced Video Codec
Format profile : High@L3.1
Format settings, CABAC : Yes
Format settings, ReFrames : 10 frames
Codec ID : V_MPEG4/ISO/AVC
Duration : 2h 7mn
Bit rate : 2 090 Kbps
Width : 688 pixels
Height : 572 pixels
Display aspect ratio : 1.283
Frame rate mode : Constant
Frame rate : 25.000 fps
Color space : YUV
Chroma subsampling : 4:2:0
Bit depth : 8 bits
Scan type : Progressive
Bits/(Pixel*Frame) : 0.212
Stream size : 1.81 GiB (83%)
Writing library : x264 core 144 r2525 40bb568
Encoding settings : cabac=1 / ref=10 / deblock=1:-1:-1 / analyse=0x3:0x133 / me=umh / subme=10 / psy=1 / psy_rd=1.00:0.10 / mixed_ref=1 / me_range=32 / chroma_me=1 / trellis=2 / 8x8dct=1 / cqm=0 / deadzone=21,11 / fast_pskip=0 / chroma_qp_offset=-3 / threads=6 / lookahead_threads=1 / sliced_threads=0 / nr=0 / decimate=1 / interlaced=0 / bluray_compat=0 / constrained_intra=0 / bframes=10 / b_pyramid=2 / b_adapt=2 / b_bias=0 / direct=3 / weightb=1 / open_gop=0 / weightp=2 / keyint=250 / keyint_min=25 / scenecut=40 / intra_refresh=0 / rc_lookahead=50 / rc=2pass / mbtree=1 / bitrate=2090 / ratetol=1.0 / qcomp=0.60 / qpmin=0 / qpmax=69 / qpstep=4 / cplxblur=20.0 / qblur=0.5 / ip_ratio=1.40 / aq=1:1.00
Default : Yes
Forced : No
Audio
ID : 2
Format : AC-3
Format/Info : Audio Coding 3
Mode extension : CM (complete main)
Format settings, Endianness : Big
Codec ID : A_AC3
Duration : 2h 7mn
Bit rate mode : Constant
Bit rate : 384 Kbps
Channel(s) : 6 channels
Channel positions : Front: L C R, Side: L R, LFE
Sampling rate : 48.0 KHz
Bit depth : 16 bits
Compression mode : Lossy
Stream size : 349 MiB (16%)
Language : Russian
Default : Yes
Forced : No
Text
ID : 3
Format : UTF-8
Codec ID : S_TEXT/UTF8
Codec ID/Info : UTF-8 Plain Text
Language : Russian
Default : No
Forced : No
Menu
00:00:00.000 : :Chapter 01
00:00:30.960 : :Chapter 02
00:10:52.920 : :Chapter 03
00:16:26.040 : :Chapter 04
00:21:16.320 : :Chapter 05
00:29:00.360 : :Chapter 06
00:36:19.920 : :Chapter 07
00:39:34.200 : :Chapter 08
00:45:59.640 : :Chapter 09
00:48:56.880 : :Chapter 10
00:54:19.200 : :Chapter 11
00:59:18.960 : :Chapter 12
01:05:03.240 : :Chapter 13
01:17:09.720 : :Chapter 14
01:23:39.120 : :Chapter 15
01:27:21.840 : :Chapter 16
01:39:29.040 : :Chapter 17
01:47:16.680 : :Chapter 18
01:53:23.040 : :Chapter 19
02:07:03.000 : :Chapter 20
Скриншоты
Скачать

Скачать торрент!

Как скачивать? · Что такое торрент? · Рейтинг и ограничения

Сайт не распространяет и не хранит электронные версии произведений, а лишь предоставляет доступ к создаваемому пользователями каталогу ссылок на торрент-файлы, которые содержат только списки хеш-сумм

[Профиль] [ЛС]
Показать сообщения:    
Ответить на тему

Текущее время: Сегодня 16:35

Часовой пояс: GMT + 4



Вы не можете начинать темы
Вы не можете отвечать на сообщения
Вы не можете редактировать свои сообщения
Вы не можете удалять свои сообщения
Вы не можете голосовать в опросах
Вы не можете прикреплять файлы к сообщениям
Вы не можете скачивать файлы