Добро пожаловать домой, Роско Дженкинс / Welcome Home, Roscoe Jenkins (Малкольм Д. Ли / Malcolm D. Lee) [2008, США, комедия, WEB-DL 1080p] MVO + DVO + Sub Eng + Original Eng

Ответить на тему
 
Автор Сообщение

user ®

Стаж: 7 лет 7 месяцев

Сообщений: 20008

Пост Пост: #1 от 17-Янв-2015 17:03

[Цитировать]

Добро пожаловать домой, Роско Дженкинс / Welcome Home, Roscoe Jenkins
Страна: США
Студия: Spyglass Entertainment, Universal Pictures
Жанр: комедия
Год выпуска: 2008
Продолжительность: 01:54:00
Перевод: Профессиональный (многоголосый закадровый) R5
Перевод 2: Любительский (двухголосый закадровый) Interfilm
Cубтитры: английские
Оригинальная аудиодорожка: английский
Режиссер: Малкольм Д. Ли / Malcolm D. Lee
В ролях: Мартин Лоуренс, Джеймс Эрл Джонс, Маргарет Эйвери, Джой Брайант, Николь Ари Паркер, Майкл Кларк Дункан, Майк Эппс, Моник, Дамани Робертс
Описание: Отец-одиночка становится ведущим рейтингового ток-шоу и в мгновение ока его жизнь превращается в сказку — платиновая кредитная карточка, звезда-невеста. Однако, когда он возвращается в семейное гнездо на 50-летнюю годовщину свадьбы своих родителей, его новые ценности не выдерживают испытания.

Sample
Тип релиза: WEB-DL 1080p
Контейнер: MKV
Видео: MPEG4 AVC Video, H264, 16:9, 1920x1040, 23.976 fps, 4923 kbps
Аудио: Russian (AC3, 6 ch, 384 kbps, 16 bits, 48.0 KHz) - MVO R5
Аудио 2: Russian (AC3, 6 ch, 448 kbps, 16 bits, 48.0 KHz) - DVO
Аудио 3: English (AC3, 6 ch, 384 kbps, 16 bits, 48.0 KHz) - оригинал
Формат субтитров: softsub (SRT)

MediaInfo
General
Unique ID : 221092276375639455171516768517326360021 (0xA654D2D47708BBE48D2CBA3BB783CDD5)
Complete name : E:\1\Welcome Home Roscoe Jenkins 2008 WEB-DL 1080p.mkv
Format : Matroska
Format version : Version 4 / Version 2
File size : 4.99 GiB
Duration : 1h 54mn
Overall bit rate : 6 263 Kbps
Encoded date : UTC 2015-01-16 00:15:05
Writing application : mkvmerge v6.1.0 ('Old Devil') built on Mar 2 2013 14:32:37
Writing library : libebml v1.3.0 + libmatroska v1.4.0
Video
ID : 1
Format : AVC
Format/Info : Advanced Video Codec
Format profile : High@L4.0
Format settings, CABAC : Yes
Format settings, ReFrames : 4 frames
Codec ID : V_MPEG4/ISO/AVC
Duration : 1h 54mn
Bit rate : 4 923 Kbps
Width : 1 920 pixels
Height : 1 040 pixels
Display aspect ratio : 1.85:1
Frame rate mode : Constant
Frame rate : 23.976 fps
Color space : YUV
Chroma subsampling : 4:2:0
Bit depth : 8 bits
Scan type : Progressive
Bits/(Pixel*Frame) : 0.103
Stream size : 3.92 GiB (79%)
Language : English
Default : Yes
Forced : No
Color primaries : BT.709
Transfer characteristics : BT.709
Matrix coefficients : BT.709
Audio #1
ID : 2
Format : AC-3
Format/Info : Audio Coding 3
Mode extension : CM (complete main)
Format settings, Endianness : Big
Codec ID : A_AC3
Duration : 1h 54mn
Bit rate mode : Constant
Bit rate : 384 Kbps
Channel count : 6 channels
Channel positions : Front: L C R, Side: L R, LFE
Sampling rate : 48.0 KHz
Bit depth : 16 bits
Compression mode : Lossy
Stream size : 313 MiB (6%)
Title : MVO
Language : Russian
Default : Yes
Forced : Yes
Audio #2
ID : 3
Format : AC-3
Format/Info : Audio Coding 3
Mode extension : CM (complete main)
Format settings, Endianness : Big
Codec ID : A_AC3
Duration : 1h 54mn
Bit rate mode : Constant
Bit rate : 448 Kbps
Channel count : 6 channels
Channel positions : Front: L C R, Side: L R, LFE
Sampling rate : 48.0 KHz
Bit depth : 16 bits
Compression mode : Lossy
Stream size : 365 MiB (7%)
Title : DVO
Language : Russian
Default : No
Forced : No
Audio #3
ID : 4
Format : AC-3
Format/Info : Audio Coding 3
Mode extension : CM (complete main)
Format settings, Endianness : Big
Codec ID : A_AC3
Duration : 1h 54mn
Bit rate mode : Constant
Bit rate : 384 Kbps
Channel count : 6 channels
Channel positions : Front: L C R, Side: L R, LFE
Sampling rate : 48.0 KHz
Bit depth : 16 bits
Compression mode : Lossy
Stream size : 313 MiB (6%)
Language : English
Default : No
Forced : No
Text
ID : 5
Format : UTF-8
Codec ID : S_TEXT/UTF8
Codec ID/Info : UTF-8 Plain Text
Language : English
Default : No
Forced : No
Menu
00:00:00.000 : en:Going Primetime (Main Titles)
00:04:46.000 : en:In Control
00:12:45.000 : en:Welcome to the Family
00:16:06.000 : en:Just Like Old Times
00:20:04.000 : en:Something Special
00:24:40.000 : en:Off the Pig
00:27:31.000 : en:Never Won
00:36:49.000 : en:High School Sweetheart
00:42:06.000 : en:Just a Crush
00:47:46.000 : en:Playing Games
00:54:16.000 : en:Sibling Rivalry
00:59:45.000 : en:New & Improved
01:04:11.000 : en:Stolen Moment
01:10:45.000 : en:He Started It!
01:15:44.000 : en:Peace at Last
01:20:13.000 : en:Family Tradition
01:29:18.000 : en:Show Some Respect
01:33:37.000 : en:A New Plan
01:36:59.000 : en:Happy Anniversary
01:46:33.000 : en:End Titles
Скриншоты
Скачать

Скачать торрент!

Как скачивать? · Что такое торрент? · Рейтинг и ограничения

Сайт не распространяет и не хранит электронные версии произведений, а лишь предоставляет доступ к создаваемому пользователями каталогу ссылок на торрент-файлы, которые содержат только списки хеш-сумм

[Профиль] [ЛС]
Показать сообщения:    
Ответить на тему

Текущее время: Сегодня 13:40

Часовой пояс: GMT + 4



Вы не можете начинать темы
Вы не можете отвечать на сообщения
Вы не можете редактировать свои сообщения
Вы не можете удалять свои сообщения
Вы не можете голосовать в опросах
Вы не можете прикреплять файлы к сообщениям
Вы не можете скачивать файлы