Под прицелом / Silent Trigger (Рассел Малкэй / Russell Mulcahy) [1996, Канада, Великобритания, боевик, триллер, драма, BDRip 720p] 2x DVO + 2x AVO (Визгунов, Карцев) + Original Eng + subs (Rus, Eng)

Ответить на тему
 
Автор Сообщение

user ®

Стаж: 7 лет 7 месяцев

Сообщений: 20008

Пост Пост: #1 от 17-Янв-2015 17:03

[Цитировать]

Под прицелом / Silent Trigger- Год выпуска: 1996
Страна: Канада, Великобритания
Жанр: боевик, триллер, драма
Продолжительность: 01:33:52
Перевод: Профессиональный (двухголосый, закадровый)
+ Профессиональный (двухголосый, закадровый) РТР
+ Авторский одноголосый С.Визгунов
+ Авторский одноголосый П.Карцев
Оригинальная звуковая дорожка: English
Cубтитры: Russian, English, German-Режиссер: Рассел Малкэй / Russell Mulcahy
В ролях: Дольф Лундгрен, Джина Беллман, Конрад Данн, Кристофер Хейердал, Эмма Стивенс, Александрия Абер, Рейнольд Робинсон, Дэйл Хэйес, Эрин Симс, Джонатан Роберт Рондо
О фильме: «Снайпер», суперкомандос, работающий на «Агентство» - законспирированную правительственную организацию, управляемую «Координатором». «Снайпер» начинает сомневаться, всматриваться в глаза и лица своих мишеней.
А его «Контролер», второй член снайперской команды, несмотря на молодость, обладает жесткой хваткой и решительностью наемного убийцы. После того, как первая миссия их снайперской команды закончилась провалом и едва их не погубила, они вновь сталкиваются при выполнении задания для «Агентства», давшего им шанс вернуться в систему.
Их мишень: автомобиль, который должен проехать по скоростному шоссе на рассвете. Им противостоят не только сомнения, призраки и беззащитная мишень. «Координатор» отдал приказ «Контролеру» уничтожить «Снайпера», если тот вновь провалит операцию.-DON!
Релиз:
Формат: MKV
Видео: 1280x544 at 23.976 fps, x264@L4.1, ~9362 kbps avg
Аудио #01: Russian: 48 kHz, AC3, 2/0 (L,R) ch, ~192 kbps avg |Двухголосый закадровый|
Аудио #02: Russian: 48 kHz, AC3, 2/0 (L,R) ch, ~192 kbps avg |Двухголосый закадровый, РТР|
Аудио #03: Russian: 48 kHz/16-bit, DTS, 3/2 (L,C,R,l,r) + LFE ch, ~755 kbps avg |Одноголосый закадровый, Визгунов|
Аудио #04: Russian: 48 kHz, AC3, 2/0 (L,R) ch, ~224 kbps avg |Одноголосый закадровый, Карцев|
Аудио #05: English: 48 kHz/16-bit, DTS, 3/2 (L,C,R,l,r) + LFE ch, ~755 kbps avg
Семпл-Скриншоты
-
mInfo
Формат : Matroska
Версия формата : Version 4 / Version 2
Размер файла : 7,67 Гбайт
Продолжительность : 1 ч. 33 м.
Общий поток : 11,7 Мбит/сек
Дата кодирования : UTC 2015-01-10 18:28:22
Программа кодирования : mkvmerge v7.4.0 ('Circles') 64bit built on Dec 12 2014 12:19:56
Библиотека кодирования : libebml v1.3.0 + libmatroska v1.4.1
DURATION : 01:33:42.752000000
NUMBER_OF_FRAMES : 527133
NUMBER_OF_BYTES : 539784192
_STATISTICS_WRITING_APP : mkvmerge v7.4.0 ('Circles') 64bit built on Dec 12 2014 12:19:56
_STATISTICS_WRITING_DATE_UTC : 2015-01-10 18:28:22
_STATISTICS_TAGS : BPS DURATION NUMBER_OF_FRAMES NUMBER_OF_BYTES
Видео
Идентификатор : 1
Формат : AVC
Формат/Информация : Advanced Video Codec
Профиль формата : High@L4.1
Параметр CABAC формата : Да
Параметр ReFrames формата : 12 кадров
Идентификатор кодека : V_MPEG4/ISO/AVC
Продолжительность : 1 ч. 33 м.
Битрейт : 9318 Кбит/сек
Ширина : 1280 пикселей
Высота : 544 пикселя
Соотношение сторон : 2,35:1
Режим частоты кадров : Постоянный
Частота кадров : 23,976 кадра/сек
Цветовое пространство : YUV
Субдискретизация насыщенности : 4:2:0
Битовая глубина : 8 бит
Тип развёртки : Прогрессивная
Бит/(Пиксели*Кадры) : 0.558
Размер потока : 6,11 Гбайт (80%)
Библиотека кодирования : x264 core 142 r2431+42 c69a006 tMod [8-bit@all X86_64]
Настройки программы : cabac=1 / ref=12 / deblock=1:-3:-3 / analyse=0x3:0x133 / me=tesa / subme=10 / psy=1 / fade_compensate=0.00 / psy_rd=1.05:0.00 / mixed_ref=1 / me_range=32 / chroma_me=1 / trellis=2 / 8x8dct=1 / cqm=0 / deadzone=21,11 / fast_pskip=0 / chroma_qp_offset=-2 / threads=12 / lookahead_threads=3 / sliced_threads=0 / nr=0 / decimate=1 / interlaced=0 / bluray_compat=0 / constrained_intra=0 / fgo=0 / bframes=12 / b_pyramid=2 / b_adapt=2 / b_bias=0 / direct=3 / weightb=1 / open_gop=0 / weightp=2 / keyint=241 / keyint_min=23 / scenecut=40 / intra_refresh=0 / rc_lookahead=60 / rc=crf / mbtree=0 / crf=17.2000 / qcomp=0.65 / qpmin=0:0:0 / qpmax=69:69:69 / qpstep=4 / vbv_maxrate=50000 / vbv_bufsize=62500 / crf_max=0.0 / nal_hrd=none / filler=0 / ip_ratio=1.40 / pb_ratio=1.30 / aq=4:0.70 / aq-sensitivity=10.00 / aq-factor=1.00:1.00:1.00 / aq2=0 / aq3=0
Язык : English
Default : Да
Forced : Нет
DURATION : 01:33:52.794000000
NUMBER_OF_FRAMES : 135052
NUMBER_OF_BYTES : 6724361988
_STATISTICS_WRITING_APP : mkvmerge v7.4.0 ('Circles') 64bit built on Dec 12 2014 12:19:56
_STATISTICS_WRITING_DATE_UTC : 2015-01-10 18:28:22
_STATISTICS_TAGS : BPS DURATION NUMBER_OF_FRAMES NUMBER_OF_BYTES
Аудио #1
Идентификатор : 2
Формат : AC-3
Формат/Информация : Audio Coding 3
Расширение режима : CM (complete main)
Параметр Endianness формата : Big
Идентификатор кодека : A_AC3
Продолжительность : 1 ч. 33 м.
Вид битрейта : Постоянный
Битрейт : 192 Кбит/сек
Каналы : 2 канала
Расположение каналов : Front: L R
Частота : 48,0 КГц
Битовая глубина : 16 бит
Метод сжатия : С потерями
Размер потока : 129 Мбайт (2%)
Заголовок : DVO 2.0ch AC3 @ 192 Kbps
Язык : Russian
Default : Да
Forced : Нет
Аудио #2
Идентификатор : 3
Формат : AC-3
Формат/Информация : Audio Coding 3
Расширение режима : CM (complete main)
Параметр Endianness формата : Big
Идентификатор кодека : A_AC3
Продолжительность : 1 ч. 33 м.
Вид битрейта : Постоянный
Битрейт : 192 Кбит/сек
Каналы : 2 канала
Расположение каналов : Front: L R
Частота : 48,0 КГц
Битовая глубина : 16 бит
Метод сжатия : С потерями
Размер потока : 129 Мбайт (2%)
Заголовок : DVO, PTP 2.0ch AC3 @ 192 Kbps
Язык : Russian
Default : Нет
Forced : Нет
Аудио #3
Идентификатор : 4
Формат : DTS
Формат/Информация : Digital Theater Systems
Режим : 16
Параметр Endianness формата : Big
Идентификатор кодека : A_DTS
Продолжительность : 1 ч. 33 м.
Вид битрейта : Постоянный
Битрейт : 768 Кбит/сек
Каналы : 6 каналов
Расположение каналов : Front: L C R, Side: L R, LFE
Частота : 48,0 КГц
Битовая глубина : 16 бит
Метод сжатия : С потерями
Размер потока : 516 Мбайт (7%)
Заголовок : AVO, Vizgunov 5.1ch DTS @ 1509 Kbps
Язык : Russian
Default : Нет
Forced : Нет
Аудио #4
Идентификатор : 5
Формат : AC-3
Формат/Информация : Audio Coding 3
Расширение режима : CM (complete main)
Параметр Endianness формата : Big
Идентификатор кодека : A_AC3
Продолжительность : 1 ч. 33 м.
Вид битрейта : Постоянный
Битрейт : 224 Кбит/сек
Каналы : 2 канала
Расположение каналов : Front: L R
Частота : 48,0 КГц
Битовая глубина : 16 бит
Метод сжатия : С потерями
Размер потока : 150 Мбайт (2%)
Заголовок : AVO, Kartsev 2.0ch AC3 @ 224 Kbps
Язык : Russian
Default : Нет
Forced : Нет
Аудио #5
Идентификатор : 6
Формат : DTS
Формат/Информация : Digital Theater Systems
Режим : 16
Параметр Endianness формата : Big
Идентификатор кодека : A_DTS
Продолжительность : 1 ч. 33 м.
Вид битрейта : Постоянный
Битрейт : 768 Кбит/сек
Каналы : 6 каналов
Расположение каналов : Front: L C R, Side: L R, LFE
Частота : 48,0 КГц
Битовая глубина : 16 бит
Метод сжатия : С потерями
Размер потока : 516 Мбайт (7%)
Заголовок : Original DTS @ 1509 Kbps
Язык : English
Default : Нет
Forced : Нет
Текст #1
Идентификатор : 7
Формат : UTF-8
Идентификатор кодека : S_TEXT/UTF8
Идентификатор кодека/Информация : UTF-8 Plain Text
Язык : Russian
Default : Нет
Forced : Нет
Текст #2
Идентификатор : 8
Формат : UTF-8
Идентификатор кодека : S_TEXT/UTF8
Идентификатор кодека/Информация : UTF-8 Plain Text
Язык : English
Default : Нет
Forced : Нет
Текст #3
Идентификатор : 9
Формат : UTF-8
Идентификатор кодека : S_TEXT/UTF8
Идентификатор кодека/Информация : UTF-8 Plain Text
Язык : German
Default : Нет
Forced : Нет
Меню
00:00:00.000 : :00:00:00.000
00:10:55.446 : :00:10:55.446
00:27:06.124 : :00:27:06.124
00:38:09.496 : :00:38:09.496
00:50:39.286 : :00:50:39.286
01:01:01.825 : :01:01:01.825
01:13:00.167 : :01:13:00.167
01:30:20.624 : :01:30:20.624
01:33:42.700 : :01:33:42.700

-
Цитата:
* Дорожка №3 получена путем наложения чистого голоса на центр оригинального DTS-HD MA.
* За запись перевода РТР большое спасибо team_6strun.
* Сохранены оригинальные чаптеры как на Blu-ray.
-
Скачать

Скачать торрент!

Как скачивать? · Что такое торрент? · Рейтинг и ограничения

Сайт не распространяет и не хранит электронные версии произведений, а лишь предоставляет доступ к создаваемому пользователями каталогу ссылок на торрент-файлы, которые содержат только списки хеш-сумм

[Профиль] [ЛС]
Показать сообщения:    
Ответить на тему

Текущее время: Сегодня 09:53

Часовой пояс: GMT + 4



Вы не можете начинать темы
Вы не можете отвечать на сообщения
Вы не можете редактировать свои сообщения
Вы не можете удалять свои сообщения
Вы не можете голосовать в опросах
Вы не можете прикреплять файлы к сообщениям
Вы не можете скачивать файлы