Майская ночь, или утопленница (Александр Роу) [1952, Сказка, Мистика, Комедия, DVDRip]

Ответить на тему
 
Автор Сообщение

user ®

Стаж: 7 лет 7 месяцев

Сообщений: 20008

Пост Пост: #1 от 17-Янв-2015 13:57

[Цитировать]

Майская ночь, или утопленница Жанр: Сказка, Мистика, Комедия
Год выпуска: 1952
Продолжительность: 00:55:15
Режиссёр: Александр Роу
В ролях: Николай Досенко, Татьяна Конюхова, Лилия Юдина, Александр Хвыля, Эмма Цесарская, Антон Дунайский, Георгий Милляр, Георгий Гумилевский, Г.Нелидов, Галина Григорьева, Александр Жуков, Василий Бокарев
Описание: Сын упрямого сельского головы никак не может получить отцовского согласия на венчание с простой казачкой. На помощь парубку неожиданно приходит «нечистая сила»…
Доп. информация:
Рип от:
Сэмпл: http://multi-up.com/1027058
Качество видео: DVDRip
Формат видео: AVI
Видео: 640x480 (1.33:1), 25 fps, XviD build 73 ~1738 kbps avg, 0.23 bit/pixel
Аудио: 48 kHz, MPEG Layer 3, 2 ch, ~128.00 kbps avg
MediaInfo
General
Complete name : D:\Торренты\Мой рип\Майская ночь или утопленница\Майская ночь.by Шкипер.avi
Format : AVI
Format/Info : Audio Video Interleave
File size : 741 MiB
Duration : 55mn 15s
Overall bit rate : 1 876 Kbps
Writing application : VirtualDubMod 1.5.10.3 | www.virtualdub-fr.org || (build 2550/release)
Writing library : VirtualDubMod build 2550/release
Video
ID : 0
Format : MPEG-4 Visual
Format profile : Advanced Simple@L5
Format settings, BVOP : 1
Format settings, QPel : No
Format settings, GMC : No warppoints
Format settings, Matrix : Default (MPEG)
Codec ID : XVID
Codec ID/Hint : XviD
Duration : 55mn 15s
Bit rate : 1 738 Kbps
Width : 640 pixels
Height : 480 pixels
Display aspect ratio : 4:3
Frame rate : 25.000 fps
Color space : YUV
Chroma subsampling : 4:2:0
Bit depth : 8 bits
Scan type : Progressive
Compression mode : Lossy
Bits/(Pixel*Frame) : 0.226
Stream size : 687 MiB (93%)
Writing library : XviD 73
Audio
ID : 1
Format : MPEG Audio
Format version : Version 1
Format profile : Layer 3
Mode : Joint stereo
Mode extension : MS Stereo
Codec ID : 55
Codec ID/Hint : MP3
Duration : 55mn 15s
Bit rate mode : Constant
Bit rate : 128 Kbps
Channel(s) : 2 channels
Sampling rate : 48.0 KHz
Compression mode : Lossy
Stream size : 50.6 MiB (7%)
Alignment : Aligned on interleaves
Interleave, duration : 40 ms (1.00 video frame)
Interleave, preload duratio : 504 ms
Writing library : LAME3.99r
Encoding settings : -m j -V 4 -q 2 -lowpass 17 -b 128
Скриншот c названием фильма Скриншоты
Скачать

Скачать торрент!

Как скачивать? · Что такое торрент? · Рейтинг и ограничения

Сайт не распространяет и не хранит электронные версии произведений, а лишь предоставляет доступ к создаваемому пользователями каталогу ссылок на торрент-файлы, которые содержат только списки хеш-сумм

[Профиль] [ЛС]
Показать сообщения:    
Ответить на тему

Текущее время: Сегодня 06:25

Часовой пояс: GMT + 4



Вы не можете начинать темы
Вы не можете отвечать на сообщения
Вы не можете редактировать свои сообщения
Вы не можете удалять свои сообщения
Вы не можете голосовать в опросах
Вы не можете прикреплять файлы к сообщениям
Вы не можете скачивать файлы