Чертов мобильник / Телефон из ада / Hellphone (Джеймс Хат / James Huth) [2007 г., Франция, ужасы, фэнтези, комедия, HDTV 1080i] Dub (Мосфильм-Мастер) + Original (fre) + Sub (rus)

Ответить на тему
 
Автор Сообщение

user ®

Стаж: 7 лет 7 месяцев

Сообщений: 20008

Пост Пост: #1 от 15-Янв-2015 17:51

[Цитировать]

Чертов мобильник / HellphoneГод выпуска: 2007
Страна: Франция | |
Жанр: комедия, фантастика
Продолжительность: 01:31:33 *(cпилена часть финальных титров)
Перевод: Профессиональный (полное дублирование)- «Мосфильм-Мастер»

Оригинальная звуковая дорожка [French]
Субтитры: RUS | *srt → Спасибо Dead Man666
Режиссер: Джеймс Ют / James Huth
Сценарий: Жан-Баптист Андреа / Jean-Baptiste Andrea, Джеймс Ют / James Huth, Соня Шиллито / Sonja Shillito
Продюсер: Эрик Альтмайер / Eric Altmeyer, Николас Альтмайер / Nicolas Altmeyer, Джеймс Ют / James Huth, Соня Шиллито / Sonja Shillito, Патрик Малакян / Patrick Malakian
Оператор: Стефан Ле Парк / Stéphane Le Parc
Композитор: Бруно Куле / Bruno Coulais
В ролях: Жан-Батист Монье (Sid), Дженнифер Декер (Angie), Бенджамин Джангерс (Pierre), Владимир Консиньи (Virgile), Эдуард Коллин (Franklin), Баптисте Кайло (David), Анаис Демустье (Clémence), Жюдит Шемла (Margot), Кантен Гроссе (Félix), Жеральдин Мартино (Charlotte), Жиль Гастон-Дрейфус (M. Tamalet), Кристиан Эк (Fritz)
Дублёры: Михаил Тихонов (Sid), Жанна Никонова (Angie), Александр Комлев (Pierre), Александр Гаврилин (Virgile), Андрей Бархударов, Илья Хвостиков (Franklin), Алексей Костричкин (David), Наталья Фищук (Clémence), Ольга Кузнецова, Полина Щербакова (Margot), Ольга Зверева (Charlotte), Вячеслав Баранов (M. Tamalet)-Сборы в России: $1 811 461
Сборы в мире: $4 237 092
Мировая премьера: 28 марта 2007-Описание: У семнадцатилетнего Сида была одна страсть - скейтборд, пока в его классе не появилась «чумовая» новенькая Анге, от которой у Сида «снесло башню». У бедного парня нет ни единого шанса покорить сердце красотки. Во-первых, он живет в трущобах на окраине города, во-вторых, работает официантом в вонючей забегаловке, в третьих - в кармане пусто, а главное - у него нет даже МОБИЛЬНИКА! Сид знает, что он самый жалкий неудачник на земле.
Но жизнь парня круто меняется, когда ему в руки случайно попадает потрясающе крутой мобильник. Как лампа Аладдина, мобила моментально выполняет все желания Сида. Теперь ему доступно абсолютно все, казалось бы, о чем еще мечтать? Но постепенно Сид начинает терять контроль над происходящим, и его жизнь превращается в нереальные приключения...-[url=http://***/forum/index.php] [/url]Рейтинг
kinopoisk.ru: 4.748 (11 880)
imdb.com: 5.10 (1267)
-Качество: HDTV 1080i

//SAMPLE//

Формат: MKV
Видео: AVC, 1440x1080@1920x1080 (16:9), 4137kbps, 25.000 fps, 0.1 bit/pixel
Аудио#1: Russian, 48 kHz, AC3 Dolby Digital, 3/2 (L,C,R,l,r) + LFE ch, ~384 kbps - Dub [Мосфильм-Мастер]
Аудио#2: French, 48 kHz, AC3 Dolby Digital, 2/0 (L,R) ch, 192.00 kbps avg
- Original

MI
Код:
eneral
Unique ID : 214816617334691266178695663542644702368 (0xA19C2CF3508743C9BE0A1C869F4EFCA0)
Complete name : H:\!HD\Chyortov.Mobilnik.2007.x264.1080i.HDTV.mkv
Format : Matroska
Format version : Version 4 / Version 2
File size : 3.03 GiB
Duration : 1h 35mn
Overall bit rate mode : Variable
Overall bit rate : 4 548 Kbps
Encoded date : UTC 2015-01-07 20:48:13
Writing application : mkvmerge v6.1.0 ('Old Devil') built on Mar 4 2013 09:10:42
Writing library : libebml v1.3.0 + libmatroska v1.4.0
Video
ID : 1
Format : AVC
Format/Info : Advanced Video Codec
Format profile : High@L4.0
Format settings, CABAC : Yes
Format settings, ReFrames : 4 frames
Codec ID : V_MPEG4/ISO/AVC
Duration : 1h 35mn
Bit rate mode : Variable
Bit rate : 3 882 Kbps
Maximum bit rate : 40.0 Mbps
Width : 1 440 pixels
Height : 1 080 pixels
Display aspect ratio : 16:9
Frame rate mode : Constant
Frame rate : 25.000 fps
Color space : YUV
Chroma subsampling : 4:2:0
Bit depth : 8 bits
Scan type : MBAFF
Bits/(Pixel*Frame) : 0.100
Stream size : 2.59 GiB (85%)
Title : Чёртов мобильник / Телефон из ада / Hellphone [2007] HDTV 1080i
Default : Yes
Forced : No
Audio #1
ID : 3
Format : AC-3
Format/Info : Audio Coding 3
Mode extension : CM (complete main)
Format settings, Endianness : Big
Codec ID : A_AC3
Duration : 1h 35mn
Bit rate mode : Constant
Bit rate : 384 Kbps
Channel(s) : 6 channels
Channel positions : Front: L C R, Side: L R, LFE
Sampling rate : 48.0 KHz
Bit depth : 16 bits
Compression mode : Lossy
Stream size : 262 MiB (8%)
Title : Dub [Мосфильм-Мастер] - AC3@5.1
Language : Russian
Default : Yes
Forced : No
Audio #2
ID : 4
Format : AC-3
Format/Info : Audio Coding 3
Mode extension : CM (complete main)
Format settings, Endianness : Big
Codec ID : A_AC3
Duration : 1h 35mn
Bit rate mode : Constant
Bit rate : 192 Kbps
Channel(s) : 2 channels
Channel positions : Front: L R
Sampling rate : 48.0 KHz
Bit depth : 16 bits
Compression mode : Lossy
Stream size : 131 MiB (4%)
Title : Original - AC3@2.0
Language : French
Default : No
Forced : No
Text
ID : 2
Format : UTF-8
Codec ID : S_TEXT/UTF8
Codec ID/Info : UTF-8 Plain Text
Language : Russian
Default : No
Forced : No

-
Скриншоты
-
Знаете ли Вы, что...

  • Мобильник-главный герой перед съемками был приобретен на популярном Российском портале Digital eXtern, и затем был перепродан на аукционе Калифорнийской киноакадемии за 30 000 долларов. Причина покупки именно на российском интернет-ресурсе неизвестна.
  • В одной сцене в кинотеатре можно увидеть фильм одного из сценаристов Жана-Баптиста Андреа «Тупик».
    -
Скачать

Скачать торрент!

Как скачивать? · Что такое торрент? · Рейтинг и ограничения

Сайт не распространяет и не хранит электронные версии произведений, а лишь предоставляет доступ к создаваемому пользователями каталогу ссылок на торрент-файлы, которые содержат только списки хеш-сумм

[Профиль] [ЛС]
Показать сообщения:    
Ответить на тему

Текущее время: Сегодня 18:41

Часовой пояс: GMT + 4



Вы не можете начинать темы
Вы не можете отвечать на сообщения
Вы не можете редактировать свои сообщения
Вы не можете удалять свои сообщения
Вы не можете голосовать в опросах
Вы не можете прикреплять файлы к сообщениям
Вы не можете скачивать файлы