Бунт роботов / Охота на роботов / Беглец / Runaway (Майкл Крайтон / Michael Crichton) [1984, США, фантастика, триллер, WEB-DL 720p] DVO (Ekaterinburg Art) + AVO (Гаврилов) + Sub Eng + Original Eng

Ответить на тему
 
Автор Сообщение

user ®

Стаж: 7 лет 7 месяцев

Сообщений: 20008

Пост Пост: #1 от 15-Янв-2015 17:51

[Цитировать]

Бунт роботов / Охота на роботов / Беглец / Runaway
Страна: США
Студия: TriStar Pictures
Жанр: фантастика, триллер
Год выпуска: 1984
Продолжительность: 1:40:04
Перевод 1: Профессиональный (двухголосый закадровый) — Ekaterinburg Art
Перевод 2: Авторский (одноголосый закадровый) — Андрей Гаврилов
Оригинальная аудиодорожка: на английском языке
Cубтитры: на английском языке
Режиссер: Майкл Крайтон / Michael Crichton
В ролях:
  • Том Селлек — Джек Р. Рэмси
  • Синтия Родес — Карен Томпсон
  • Джин Симмонс — Чарльз Лютер
  • Керсти Элли — Джеки, подруга Лютера
  • Джой Крэмер — Бобби
    Описание: Будущее. Повсюду роботы. Они работают на фермах, заводах, строят здания, следят за безопасностью в офисах, выполняют работу по дому. Сержант Джек Рэмси (Том Селлек) и его новая напарница Карен Томпсон (Синтия Родес) служат в особом отделе полиции, который занимается поиском сбежавших и нейтрализацией вышедших из-под контроля роботов. Их работа обычно довольно рутинная, но однажды в городе появляется робот-киллер, запрограммированный убивать. Выясняется, что он был перепрограммирован доктором Чарльзом Лютером (Джин Симмонс) — злодеем, намеревающимся продавать свои опасные технологии преступникам и террористам. Рэмси и Томпсон быстро выходят на след Лютера, но обнаруживают, что теперь он направил свои разработки против них самих...
    Режиссер фильма — знаменитый писатель Майкл Крайтон экранизировал здесь свою собственную книгу. Фильм предназначен для ценителей реалистичной научной фантастики. В роли Чарльза Лютера снялся Джин Симмонс — солист рок-группы Kiss.
    Тип релиза: WEB-DL 720p
    Контейнер: MKV
    Сэмпл: 40 Мб
    Саундтрек: [url=http://***/forum/viewtopic.php?t=3232873]APE, lossless (286 Мб)[/url] | [url=http://***/forum/viewtopic.php?t=2832506]MP3 (54 Мб)[/url]
    Видео: 1280x544p (2.35:1), 23.976 fps, MPEG-4 AVC (H.264), 4110 kbps
    Аудио 1 (RUS): AC3, 2.0 ch (L,R), 48 kHz, 192 kbps (взято из [url=http://***/forum/viewtopic.php?t=3967832]3967832[/url], спасибо vamoss'у)
    Аудио 2 (RUS): AC3, 2.0 ch (L,R), 48 kHz, 192 kbps (взято из [url=http://***/forum/viewtopic.php?t=1079078]1079078[/url], спасибо Гостю)
    Аудио 3 (ENG): AAC, 2.0 ch (L,R), 48 kHz, 153 kbps
    Формат субтитров: softsub (SRT)
    Скриншоты
MediaInfo
General
Unique ID : 190950226882814245910321684369059229053 (0x8FA7AD0D4B81E673BE0EF66B862A2D7D)
Complete name : Runaway.1984.720p.WEB-DL.h264.mkv
Format : Matroska
Format version : Version 4 / Version 2
File size : 3.25 GiB
Duration : 1h 40mn
Overall bit rate : 4 646 Kbps
Encoded date : UTC 2015-01-14 08:20:54
Writing application : mkvmerge v7.4.0 ('Circles') 64bit built on Dec 12 2014 12:19:56
Writing library : libebml v1.3.0 + libmatroska v1.4.1
_STATISTICS_WRITING_APP : mkvmerge v7.4.0 ('Circles') 64bit built on Dec 12 2014 12:19:56
_STATISTICS_WRITING_DATE_UTC : 2015-01-14 08:20:54
_STATISTICS_TAGS : BPS DURATION NUMBER_OF_FRAMES NUMBER_OF_BYTES
DURATION : 01:40:04.832000000
NUMBER_OF_FRAMES : 187651
NUMBER_OF_BYTES : 144115968
Video
ID : 1
Format : AVC
Format/Info : Advanced Video Codec
Format profile : Main@L3.1
Format settings, CABAC : No
Format settings, ReFrames : 2 frames
Format settings, GOP : N=1
Codec ID : V_MPEG4/ISO/AVC
Duration : 1h 40mn
Width : 1 280 pixels
Height : 544 pixels
Display aspect ratio : 2.35:1
Frame rate mode : Constant
Frame rate : 23.976 fps
Color space : YUV
Chroma subsampling : 4:2:0
Bit depth : 8 bits
Scan type : Progressive
Default : Yes
Forced : No
Color primaries : BT.709
Transfer characteristics : BT.709
Matrix coefficients : BT.709
Audio #1
ID : 2
Format : AC-3
Format/Info : Audio Coding 3
Mode extension : CM (complete main)
Format settings, Endianness : Big
Codec ID : A_AC3
Duration : 1h 40mn
Bit rate mode : Constant
Bit rate : 192 Kbps
Channel(s) : 2 channels
Channel positions : Front: L R
Sampling rate : 48.0 KHz
Bit depth : 16 bits
Compression mode : Lossy
Stream size : 137 MiB (4%)
Title : RUS - Ekaterinburg Art
Language : Russian
Default : Yes
Forced : No
Audio #2
ID : 3
Format : AC-3
Format/Info : Audio Coding 3
Format profile : Dolby Digital
Mode extension : CM (complete main)
Format settings, Endianness : Big
Codec ID : A_AC3
Duration : 1h 40mn
Bit rate mode : Constant
Bit rate : 192 Kbps
Channel(s) : 2 channels
Channel positions : Front: L R
Sampling rate : 48.0 KHz
Bit depth : 16 bits
Compression mode : Lossy
Stream size : 137 MiB (4%)
Title : RUS - A.Gavrilov
Language : Russian
Default : No
Forced : No
Audio #3
ID : 4
Format : AAC
Format/Info : Advanced Audio Codec
Format profile : LC
Codec ID : A_AAC
Duration : 1h 40mn
Channel(s) : 2 channels
Channel positions : Front: L R
Sampling rate : 48.0 KHz
Compression mode : Lossy
Title : ENG - Original
Language : English
Default : No
Forced : No
Text
ID : 5
Format : UTF-8
Codec ID : S_TEXT/UTF8
Codec ID/Info : UTF-8 Plain Text
Language : English
Default : No
Forced : No
Menu
00:00:00.000 : en:START - ru:НАЧАЛО
00:02:04.000 : en:RAMSAY'S NEW PARTNER - ru:НОВЫЙ НАПАРНИК
00:05:32.000 : en:CORNFIELD PERSUIT - ru:ПОГОНЯ НА КУКУРУЗНОМ ПОЛЕ
00:10:11.000 : en:DEFECTIVE 912 - ru:НЕИСПРАВНЫЙ 912-Й
00:12:09.000 : en:FLOATER CAMERA - ru:РАЗВЕДЫВАТЕЛЬНАЯ КАМЕРА
00:15:09.000 : en:DISENGAGED - ru:ШТУРМ
00:20:37.000 : en:BOBBY & LOIS - ru:БОББИ И ЛОИС
00:26:18.000 : en:STACKER GONE NUTS - ru:НЕИСПРАВНЫЙ УКЛАДЧИК
00:30:17.000 : en:CHARLES LUTHER - ru:ЧАРЛЬЗ ЛЮТЕР
00:32:28.000 : en:ROOM 404 - ru:КОМНАТА 404
00:33:59.000 : en:DAVID JOHNSON, R.I.P. - ru:СМЕРТЬ ДЭВИДА ДЖОНСОНА
00:37:07.000 : en:VECTROCON DATA FILES - ru:ФАЙЛЫ КОМПАНИИ ВЕКТРОКОН
00:38:29.000 : en:SAVING JACKIE - ru:СПАСЕНИЕ ДЖЕКИ
00:45:17.000 : en:SHOOTOUT & PURSUIT - ru:ПЕРЕСТРЕЛКА И ПОГОНЯ
00:47:52.000 : en:NOT A BULLET - ru:ЭТО НЕ ПУЛЯ
00:51:19.000 : en:DISARM JOB - ru:ОБЕЗВРЕЖИВАНИЕ
00:55:52.000 : en:HOME WITH BOBBY - ru:ДОМА С БОББИ
00:57:40.000 : en:A SMART BULLET - ru:САМОНАВОДЯЩАЯСЯ ПУЛЯ
01:00:02.000 : en:LINDA THE PSYCHIC - ru:ЭКСТРАСЕНС ЛИНДА
01:01:06.000 : en:LUTHER CALLS - ru:ЗВОНОК ЛЮТЕРА
01:04:37.000 : en:DEBUG SCAN - ru:СКАНИРОВАНИЕ ДЖЕКИ
01:07:28.000 : en:HIGHWAY PURSUIT - ru:ПОГОНЯ НА ШОССЕ
01:11:58.000 : en:PUBLIC APPEARANCE - ru:ВЫХОД В СВЕТ
01:17:59.000 : en:UNAUTHORIZED ACCESS - ru:НЕСАНКЦИОНИРОВАННЫЙ ДОСТУП
01:22:03.000 : en:THE CONSTRUCTION SITE - ru:СТРОЙПЛОЩАДКА
01:26:28.000 : en:LUTHER VS. RAMSAY - ru:ЛЮТЕР ПРОТИВ РЭМСИ
01:27:42.000 : en:VERTIGO & SPIDERS - ru:ГОЛОВОКРУЖЕНИЕ И ПАУКИ
01:32:05.000 : en:FINAL DESCENT - ru:ПОСЛЕДНЯЯ СХВАТКА
Скачать

Скачать торрент!

Как скачивать? · Что такое торрент? · Рейтинг и ограничения

Сайт не распространяет и не хранит электронные версии произведений, а лишь предоставляет доступ к создаваемому пользователями каталогу ссылок на торрент-файлы, которые содержат только списки хеш-сумм

[Профиль] [ЛС]
Показать сообщения:    
Ответить на тему

Текущее время: Сегодня 12:34

Часовой пояс: GMT + 4



Вы не можете начинать темы
Вы не можете отвечать на сообщения
Вы не можете редактировать свои сообщения
Вы не можете удалять свои сообщения
Вы не можете голосовать в опросах
Вы не можете прикреплять файлы к сообщениям
Вы не можете скачивать файлы