Морской туман / Haemoo (Сон Бо Шим / Shim Sung Bo) [2014, Корея Южная, Драма, HDTVRip] DVO (DeadSno & den904)

Ответить на тему
 
Автор Сообщение

user ®

Стаж: 13 лет

Сообщений: 15071

Пост Пост: #1 от 15-Янв-2015 11:39

[Цитировать]

Морской туман / Haemoo
Страна: Корея Южная
Жанр: Драма
Год выпуска:2014
Продолжительность:01:53:47
Перевод: Любительский (двухголосый закадровый) [DeadSno & den904]
Оригинальная аудиодорожка: нет
Cубтитры: нет
Режиссер: Сон Бо Шим / Shim Sung Bo
В ролях: Ник Чун, Энни Лю, Кэрри ЭнДжи
Описание: Рыболовное судно «Jeonjiho» выходит в море для ловли рыбы. Но, как бы они ни надеялись на хороший улов, чуда не произошло. Чтобы хоть немного заработать, команда решает провезти на своем судне контрабандой безбилетников. Эти безбилетники — этнические корейцы, живущие в Китае и мечтающие перебраться в Южную Корею. На пути в Корею судно попадает в шторм, да и по пятам за ними следует южнокорейская Морская полиция. А в это время безбилетники в трюме «Jeonjiho» задыхаются до смерти. Среди этого хаоса самый молодой член экипажа Дон Сик изо всех сил пытается защитить молодую эмигрантку, в которую влюбился…

Качество: HDTVRip
Контейнер: AVI
Видео: 720x304 (2.37:1), 24.000 fps, XviD build 50 ~1678 kbps avg, 0.32 bit/pixel
Аудио: 48 kHz, AC3 Dolby Digital, 2/0 (L,R) ch, ~192 kbps

MI
Общее
Полное имя : C:\Users\Пользователь\Downloads\Sea.Fog.2014.HDTVRip.avi
Формат : AVI
Формат/Информация : Audio Video Interleave
Размер файла : 1,46 Гбайт
Продолжительность : 1 ч. 51 м.
Общий поток : 1880 Кбит/сек
Название фильма : Sea.Fog.2014.HDTVRip.uniongang.tv
Режиссёр : 4ELLENGER
Программа кодирования : VirtualDubMod 1.5.10.3 | www.virtualdub-fr.org || (build 2550/release)
Правообладатель : uniongang.tv
Видео
Идентификатор : 0
Формат : MPEG-4 Visual
Профиль формата : Advanced Simple@L5
Параметр BVOP формата : 2
Параметр QPel формата : Нет
Параметр GMC формата : Без точки перехода
Параметр матрицы формата : Выборочная
Идентификатор кодека : XVID
Идентификатор кодека/Подсказка : XviD
Продолжительность : 1 ч. 51 м.
Битрейт : 1678 Кбит/сек
Ширина : 720 пикселей
Высота : 304 пикселя
Соотношение сторон : 2,35:1
Частота кадров : 24,000 кадра/сек
Цветовое пространство : YUV
Субдискретизация насыщенности : 4:2:0
Битовая глубина : 8 бит
Тип развёртки : Прогрессивная
Метод сжатия : С потерями
Бит/(Пиксели*Кадры) : 0.319
Размер потока : 1,30 Гбайт (89%)
Библиотека кодирования : XviD 1.2.1 (UTC 2008-12-04)
Аудио
Идентификатор : 1
Формат : AC-3
Формат/Информация : Audio Coding 3
Расширение режима : CM (complete main)
Параметр Endianness формата : Big
Идентификатор кодека : 2000
Продолжительность : 1 ч. 51 м.
Вид битрейта : Постоянный
Битрейт : 192 Кбит/сек
Каналы : 2 канала
Расположение каналов : Front: L R
Частота : 48,0 КГц
Битовая глубина : 16 бит
Метод сжатия : С потерями
Размер потока : 152 Мбайт (10%)
Выравнивание : Разделение по промежуткам
Продолжительность промежутка : 42 мс. (1,00 видеокадр)
Время предзагрузки промежутка : 500 мс.
Скриншоты
Скачать

Скачать торрент! Морской туман / Haemoo (Сон Бо Шим / Shim Sung Bo) [2014, Корея Южная, Драма, HDTVRip] DVO (DeadSno & den904)

Как скачивать? · Что такое торрент? · Рейтинг и ограничения

Сайт не распространяет и не хранит электронные версии произведений, а лишь предоставляет доступ к создаваемому пользователями каталогу ссылок на торрент-файлы, которые содержат только списки хеш-сумм

[Профиль] [ЛС]
Показать сообщения:    
Ответить на тему

Текущее время: Сегодня 17:37

Часовой пояс: GMT + 4



Вы не можете начинать темы
Вы не можете отвечать на сообщения
Вы не можете редактировать свои сообщения
Вы не можете удалять свои сообщения
Вы не можете голосовать в опросах
Вы не можете прикреплять файлы к сообщениям
Вы не можете скачивать файлы