На живца / Приманка / Bait (Антуан Фукуа / Antoine Fuqua) [2000, Канада, Австралия, США, боевик, триллер, криминал, WEB-DL 1080p] Dub (R5) + 2х AVO (Гаврилов, Живов) + Sub Rus, Eng + Original Eng

Ответить на тему
 
Автор Сообщение

user ®

Стаж: 7 лет 7 месяцев

Сообщений: 20008

Пост Пост: #1 от 15-Янв-2015 01:18

[Цитировать]

На живца / Приманка / Bait
Страна: Канада, Австралия, США
Студия: Bait Films, Castle Rock Entertainment, Village Roadshow Pictures
Жанр: боевик, триллер, криминал
Год выпуска: 2000
Продолжительность: 01:59:25
Перевод: Профессиональный (дублированный) R5
Перевод 2: Авторский (одноголосый закадровый) А. Гаврилов
Перевод 3: Авторский (одноголосый закадровый) Ю. Живов
Cубтитры: русские, английские
Оригинальная аудиодорожка: английский
Режиссер: Антуан Фукуа / Antoine Fuqua
В ролях: Джейми Фокс, Дэвид Морс, Роберт Пасторелли, Даг Хатчисон, Кимберли Элиз, Дэвид Пэймер, Майк Эппс, Джейми Кеннеди, Нестор Серрано, Кирк Асеведо
Описание: Золотой запас США охраняется сложнейшей компьютерной системой безопасности. Именно её удалось взломать неизвестному хакеру. Охрана убита, золото исчезло. Один из преступников, спрятавший добычу, умирает в тюремной камере. Его сокамерника, мелкого воришку Элвина, выпускают из тюрьмы и вручают 11,500 $ на "карманные расходы". Он подозревает, что стал наживкой в хитроумной и беспощадной игре спецслужб, которые ищут таинственного хакера-убийцу.

Sample
Тип релиза: WEB-DL 1080p
Контейнер: MKV
Видео: MPEG4 AVC Video, H264, 16:9, 1908x810, 23.976 fps, 3828 kbps
Аудио: Russian (AC3, 6 ch, 384 kbps, 16 bits, 48.0 KHz) - Dub R5
Аудио 2: Russian (AC3, 6 ch, 384 kbps, 16 bits, 48.0 KHz) - А. Гаврилов
Аудио 3: Russian (AC3, 6 ch, 384 kbps, 16 bits, 48.0 KHz) - Ю. Живов
Аудио 4: English (AC3, 6 ch, 384 kbps, 16 bits, 48.0 KHz) - оригинал
Формат субтитров: softsub (SRT)

MediaInfo
General
Unique ID : 220149006468004322933526093272903664753 (0xA59F280869E844769F9D63CC92D94471)
Complete name : E:\1\Bait 2000 WEB-DL 1080p.mkv
Format : Matroska
Format version : Version 4 / Version 2
File size : 4.56 GiB
Duration : 1h 59mn
Overall bit rate : 5 473 Kbps
Encoded date : UTC 2015-01-13 06:20:56
Writing application : mkvmerge v6.1.0 ('Old Devil') built on Mar 2 2013 14:32:37
Writing library : libebml v1.3.0 + libmatroska v1.4.0
Video
ID : 1
Format : AVC
Format/Info : Advanced Video Codec
Format profile : High@L4.0
Format settings, CABAC : Yes
Format settings, ReFrames : 5 frames
Codec ID : V_MPEG4/ISO/AVC
Duration : 1h 59mn
Bit rate : 3 828 Kbps
Width : 1 908 pixels
Height : 810 pixels
Display aspect ratio : 2.35:1
Frame rate mode : Constant
Frame rate : 23.976 fps
Color space : YUV
Chroma subsampling : 4:2:0
Bit depth : 8 bits
Scan type : Progressive
Bits/(Pixel*Frame) : 0.103
Stream size : 3.19 GiB (70%)
Language : English
Default : Yes
Forced : No
Color primaries : BT.709
Transfer characteristics : BT.709
Matrix coefficients : BT.709
Audio #1
ID : 2
Format : AC-3
Format/Info : Audio Coding 3
Mode extension : CM (complete main)
Format settings, Endianness : Big
Codec ID : A_AC3
Duration : 1h 59mn
Bit rate mode : Constant
Bit rate : 384 Kbps
Channel count : 6 channels
Channel positions : Front: L C R, Side: L R, LFE
Sampling rate : 48.0 KHz
Bit depth : 16 bits
Compression mode : Lossy
Stream size : 328 MiB (7%)
Title : дубляж
Language : Russian
Default : Yes
Forced : No
Audio #2
ID : 3
Format : AC-3
Format/Info : Audio Coding 3
Mode extension : CM (complete main)
Format settings, Endianness : Big
Codec ID : A_AC3
Duration : 1h 59mn
Bit rate mode : Constant
Bit rate : 384 Kbps
Channel count : 6 channels
Channel positions : Front: L C R, Side: L R, LFE
Sampling rate : 48.0 KHz
Bit depth : 16 bits
Compression mode : Lossy
Stream size : 328 MiB (7%)
Title : А. Гаврилов
Language : Russian
Default : No
Forced : No
Audio #3
ID : 4
Format : AC-3
Format/Info : Audio Coding 3
Mode extension : CM (complete main)
Format settings, Endianness : Big
Codec ID : A_AC3
Duration : 1h 59mn
Bit rate mode : Constant
Bit rate : 384 Kbps
Channel count : 6 channels
Channel positions : Front: L C R, Side: L R, LFE
Sampling rate : 48.0 KHz
Bit depth : 16 bits
Compression mode : Lossy
Stream size : 328 MiB (7%)
Title : Ю. Живов
Language : Russian
Default : No
Forced : No
Audio #4
ID : 5
Format : AC-3
Format/Info : Audio Coding 3
Mode extension : CM (complete main)
Format settings, Endianness : Big
Codec ID : A_AC3
Duration : 1h 59mn
Bit rate mode : Constant
Bit rate : 384 Kbps
Channel count : 6 channels
Channel positions : Front: L C R, Side: L R, LFE
Sampling rate : 48.0 KHz
Bit depth : 16 bits
Compression mode : Lossy
Stream size : 328 MiB (7%)
Language : English
Default : No
Forced : No
Text #1
ID : 6
Format : UTF-8
Codec ID : S_TEXT/UTF8
Codec ID/Info : UTF-8 Plain Text
Language : Russian
Default : No
Forced : No
Text #2
ID : 7
Format : UTF-8
Codec ID : S_TEXT/UTF8
Codec ID/Info : UTF-8 Plain Text
Language : English
Default : No
Forced : No
Menu
00:00:00.000 : en:1.
00:02:38.000 : en:2.
00:05:15.000 : en:3.
00:08:34.000 : en:4.
00:11:37.000 : en:5.
00:15:45.000 : en:6.
00:19:27.000 : en:7.
00:22:35.000 : en:8.
00:27:40.000 : en:9.
00:31:31.000 : en:10.
00:35:03.000 : en:11.
00:37:55.000 : en:12.
00:40:15.000 : en:13.
00:47:03.000 : en:14.
00:49:36.000 : en:15.
00:51:27.000 : en:16.
00:56:10.000 : en:17.
01:00:21.000 : en:18.
01:03:20.000 : en:19.
01:05:06.000 : en:20.
01:09:21.000 : en:21.
01:11:11.000 : en:22.
01:14:56.000 : en:23.
01:17:06.000 : en:24.
01:20:20.000 : en:25.
01:23:13.000 : en:26.
01:26:57.000 : en:27.
01:29:53.000 : en:28.
01:34:37.000 : en:29.
01:36:35.000 : en:30.
01:40:42.000 : en:31.
01:43:24.000 : en:32.
01:46:01.000 : en:33.
01:50:52.000 : en:34.
01:53:16.000 : en:35.
01:55:39.000 : en:36.
Скриншоты
Скачать

Скачать торрент!

Как скачивать? · Что такое торрент? · Рейтинг и ограничения

Сайт не распространяет и не хранит электронные версии произведений, а лишь предоставляет доступ к создаваемому пользователями каталогу ссылок на торрент-файлы, которые содержат только списки хеш-сумм

[Профиль] [ЛС]
Показать сообщения:    
Ответить на тему

Текущее время: Сегодня 22:26

Часовой пояс: GMT + 4



Вы не можете начинать темы
Вы не можете отвечать на сообщения
Вы не можете редактировать свои сообщения
Вы не можете удалять свои сообщения
Вы не можете голосовать в опросах
Вы не можете прикреплять файлы к сообщениям
Вы не можете скачивать файлы