Напортачили. Полный облом! / Тринадцатый этаж / Botched (Кит Райан / Kit Ryan) [2007, Германия, Ирландия, Великобритания, США, триллер, комедия, криминал, ужасы, WEB-DL 720p] MVO (R5) + VO (RussianGuy27) + Original Eng

Ответить на тему
 
Автор Сообщение

user ®

Стаж: 7 лет 7 месяцев

Сообщений: 20008

Пост Пост: #1 от 15-Янв-2015 01:18

[Цитировать]

-Напортачили. Полный облом!
Botched
- Год выпуска: 2007
Страна: Германия, Ирландия, Великобритания, США
Жанр: чёрная комедия, криминал, ужасы
Продолжительность: 01:34:39
Перевод 1: Профессиональный (многоголосый закадровый) - R5
Перевод 2: Одноголосый (закадровый) - RussianGuy27
Субтитры: отсутствуют
Оригинальная аудиодорожка: английский
Режиссеры: Кит Райан / Kit Ryan
В ролях: Стивен Дорфф, Дэвид Хип, Алан Смит, Шон Пертуи, Джэми Формен, Расселл Смит, Брона Галлахер, Норма Шихан, Джин Руни, Джейм Мюррэй, Хью О`Конор, Джофф Белл, Зак Магвайр, Эдвард Бейкер-Дьюли и др.
Описание: Профессиональный вор по имени Ритчи проваливает своё последнее задание во Франции, где ему не удаётся похитить бриллианты (точнее, удаётся, но потом он их глупо теряет). Его босс даёт ему шанс исправиться, для чего молодому человеку предстоит отправиться в холодную Россию, в Москву, где он должен будет пробраться в здание небоскрёба и похитить в пентхаусе драгоценный крест. В помощь к Ритчи даются два русских брата-братка (толстяк и худой). Они пробираются в здание, заходят в лифт и методом манипуляций с его электронной начинкой поднимаются на самый верх, где после короткой перестрелки добывают искомую вещь и забираются в лифт, чтобы покинуть здание. Но охрана получает информацию о нападении и переправляет лифт прямиком на 13-й этаж, закрытый для общего пользования. В связи с этим трое бандитов оказываются на пустующем этаже вместе с несколькими невольными заложниками и обитающим там маньяком, который возомнил себя потомком Ивана Грозного…- -Качество: WEB-DL 720p
Формат: MKV
Видео кодек: H264
Аудио кодек: AC3
Видео: 1278x720 (16:9), 23.976 fps, 3981 kbps, 0.180 bit/pixel
Аудио 1: 48 kHz, AC3 Dolby Digital, 3/2 (L,C,R,l,r) + LFE ch, ~448.00 kbps avg | Russian | MVO (R5)
Аудио 2: 48 kHz, AC3 Dolby Digital, 3/2 (L,C,R,l,r) + LFE ch, ~384.00 kbps avg | Russian | VO (RussianGuy27) [присутствует ненормативная лексика]
Аудио 4: 48 kHz, AC3 Dolby Digital, 3/2 (L,C,R,l,r) + LFE ch, ~384.00 kbps avg | English | оригинал-СЭМПЛ
-Скриншоты MediaInfo
General
Format : Matroska
File size : 3.51 GiB
Duration : 1h 34mn
Overall bit rate : 5 303 Kbps
Encoded date : UTC 2015-01-12 15:46:38
Writing application : mkvmerge v2.9.7 ('Tenderness') built on Jul 1 2009 18:43:35
Writing library : libebml v0.7.7 + libmatroska v0.8.1
Video
ID : 1
Format : AVC
Format/Info : Advanced Video Codec
Format profile : High@L3.1
Format settings, CABAC : No
Format settings, ReFrames : 2 frames
Muxing mode : Container profile=Unknown@3.1
Codec ID : V_MPEG4/ISO/AVC
Duration : 1h 34mn
Bit rate : 3 981 Kbps
Width : 1 278 pixels
Height : 720 pixels
Display aspect ratio : 16:9
Frame rate : 23.976 fps
Resolution : 24 bits
Colorimetry : 4:2:0
Scan type : Progressive
Bits/(Pixel*Frame) : 0.180
Stream size : 2.63 GiB (75%)
Title : HD4FUN
Language : English
colour_primaries : BT.709-5, BT.1361, IEC 61966-2-4, SMPTE RP177
transfer_characteristics : BT.709-5, BT.1361
matrix_coefficients : BT.709-5, BT.1361, IEC 61966-2-4 709, SMPTE RP177
Audio #1
ID : 2
Format : AC-3
Format/Info : Audio Coding 3
Codec ID : A_AC3
Duration : 1h 34mn
Bit rate mode : Constant
Bit rate : 448 Kbps
Channel(s) : 6 channels
Channel positions : Front: L C R, Surround: L R, LFE
Sampling rate : 48.0 KHz
Stream size : 303 MiB (8%)
Title : MVO (R5)
Language : Russian
Audio #2
ID : 3
Format : AC-3
Format/Info : Audio Coding 3
Codec ID : A_AC3
Duration : 1h 34mn
Bit rate mode : Constant
Bit rate : 384 Kbps
Channel(s) : 6 channels
Channel positions : Front: L C R, Surround: L R, LFE
Sampling rate : 48.0 KHz
Stream size : 260 MiB (7%)
Title : AVO (S. Cherkasov)
Language : Russian
Audio #3
ID : 4
Format : AC-3
Format/Info : Audio Coding 3
Codec ID : A_AC3
Duration : 1h 34mn
Bit rate mode : Constant
Bit rate : 384 Kbps
Channel(s) : 6 channels
Channel positions : Front: L C R, Surround: L R, LFE
Sampling rate : 48.0 KHz
Stream size : 260 MiB (7%)
Language : English
Menu
00:00:00.000 : en:Credits
00:10:15.000 : en:Cramped Situation
00:17:18.000 : en:Change of Plans
00:22:04.000 : en:Severed Ties
00:26:05.000 : en:Where's The Body
00:32:58.000 : en:Preparations For War
00:36:46.000 : en:Divine Deliverance
00:40:35.000 : en:Alpha Males
00:43:18.000 : en:Dancing Death
00:48:51.000 : en:Locked, Not Loaded
00:51:59.000 : en:Calling All Ferrets
00:55:15.000 : en:"Meet ""The Almighty"
01:01:48.000 : en:Psycho Siblings
01:03:15.000 : en:Duel With The Devil
01:07:01.000 : en:Traps For The Terrible
01:09:58.000 : en:Damned If They Do鈥
01:14:48.000 : en:Things Get Out Of Hand
01:22:35.000 : en:Ivan's Last Stand
01:28:45.000 : en:Out Of The Family
01:31:42.000 : en:End Credits
-Всем приятного просмотра!
Оставляйте комментарии.
-
Скачать

Скачать торрент!

Как скачивать? · Что такое торрент? · Рейтинг и ограничения

Сайт не распространяет и не хранит электронные версии произведений, а лишь предоставляет доступ к создаваемому пользователями каталогу ссылок на торрент-файлы, которые содержат только списки хеш-сумм

[Профиль] [ЛС]
Показать сообщения:    
Ответить на тему

Текущее время: Сегодня 04:07

Часовой пояс: GMT + 4



Вы не можете начинать темы
Вы не можете отвечать на сообщения
Вы не можете редактировать свои сообщения
Вы не можете удалять свои сообщения
Вы не можете голосовать в опросах
Вы не можете прикреплять файлы к сообщениям
Вы не можете скачивать файлы