Горькая луна / Bitter Moon (Роман Полански / Roman Polanski) [1992, Франция, Великобритания, США, триллер, драма, мелодрама, BDRip 720p] Dub + MVO + DVO + VO + Sub Rus, Eng + Original Eng

Ответить на тему
 
Автор Сообщение

user ®

Стаж: 7 лет 7 месяцев

Сообщений: 20008

Пост Пост: #1 от 15-Янв-2015 01:18

[Цитировать]

Горькая луна / Bitter Moon Страна: Франция, Великобритания, США
Студия: Canal+, Les Films Alain Sarde, Columbia Pictures Corporation
Жанр: триллер, драма, мелодрама
Год выпуска: 1992
Продолжительность: 02:19:40
Перевод 1: Профессиональный (дублированный) [студия "Синхрон" - "Хлопушка", DVD9 R5 - CD Land]
Перевод 2: Профессиональный (многоголосый закадровый) [DVD9.NTSC]
Перевод 3: Профессиональный (двухголосый закадровый) [студия "Инис" - Союз видео]
Перевод 4: Одноголосый закадровый (VHS)
Cубтитры: русские, английские, английские SDH
Оригинальная аудиодорожка: английский
Режиссер: Роман Полански / Roman Polanski
В ролях: Питер Койот, Эмманюэль Сенье, Хью Грант, Кристин Скотт Томас, Виктор Банерджи, Софи Патель, Патрик Альбенк, Смиля Михайлович, Лео Экманн, Люка Веллани, Ришар Дьё, Натали Галан, Эрик Гонсалес, Оливия Брюно, Хивон Грант, Шарлин, Джефри Кэри, Роберт Бенмусса, Стокард Ченнинг, Клер Лопес, Фредерик Лопез
Описание: Случайная встреча ранним весенним утром в парижском автобусе на всю оставшуюся жизнь определила судьбу Оскара и Мими. Их не интересовали романтичность и возвышенная любовь — они хотели исследовать свою страсть. И они исследовали друг друга и себя до полного саморазрушения.- -Тип релиза: BDRip 720p ([url=http://***/forum/viewtopic.php?t=4912433]Исходник: BDRemux (Jap) / 1080i / AVC / 29,970 fps / 34784 kbps / LPCM 2.0 16-bit 1536 kbps - HDclub)[/url]
Контейнер: MKV
Видео: MPEG-4 AVC Video, 1280x676 / 1,89:1 (16:9) / ~11200 kbps / 23,976 fps / High@L4.1 / 2pass
Аудио 1: Russian: AC3 2.0 ch, 192 kbps, 48 kHz | дубляж
Аудио 2: Russian: AC3 2.0 ch, 192 kbps, 48 kHz | многоголосый
Аудио 3: Russian: AC3 2.0 ch, 192 kbps, 48 kHz | двухголосый
Аудио 4: Russian: AC3 2.0 ch, 192 kbps, 48 kHz | одноголосый
Аудио 5: English: FLAC 2.0 ch, ~594 kbps, 16-bit, 48 kHz | original
Формат субтитров: softsub (SRT)
Главы:
х264 Log
x264 [info]: frame I:1039 Avg QP:16.40 size:127468
x264 [info]: frame P:34786 Avg QP:18.25 size: 77300
x264 [info]: frame B:165117 Avg QP:19.70 size: 53969
x264 [info]: consecutive B-frames: 1.0% 1.0% 2.8% 14.0% 13.2% 28.1% 10.1% 9.8% 6.2% 5.3% 3.4% 3.3% 2.0%
MediaInfo
Общее
Уникальный идентификатор : 209410942703240987071571020399514871879 (0x9D8B149D2F5DDC5DB9ECB5CF7031E847)
Полное имя : N:\Горькая луна 1992.BDRip.720p.ДБ.ПМ.ПД.ЛО.Eng.mkv
Формат : Matroska
Версия формата : Version 4 / Version 2
Размер файла : 12,3 Гбайт
Продолжительность : 2 ч. 19 м.
Режим общего битрейта : Переменный
Общий поток : 12,6 Мбит/сек
Название фильма : Bitter Moon (1992)
Дата кодирования : UTC 2015-01-13 16:01:23
Программа кодирования : mkvmerge v7.5.0 ('Glass Culture') 32bit built on Jan 4 2015 16:37:25
Библиотека кодирования : libebml v1.3.1 + libmatroska v1.4.2
Видео
Идентификатор : 1
Формат : AVC
Формат/Информация : Advanced Video Codec
Профиль формата : High@L4.1
Параметр CABAC формата : Да
Параметр ReFrames формата : 9 кадров
Идентификатор кодека : V_MPEG4/ISO/AVC
Продолжительность : 2 ч. 19 м.
Номинальный битрейт : 11,2 Мбит/сек
Ширина : 1280 пикселей
Высота : 676 пикселей
Соотношение сторон : 1,893
Режим частоты кадров : Постоянный
Частота кадров : 23,976 кадра/сек
Цветовое пространство : YUV
Субдискретизация насыщенности : 4:2:0
Битовая глубина : 8 бит
Тип развёртки : Прогрессивная
Бит/(Пиксели*Кадры) : 0.540
Библиотека кодирования : x264 core 144 r2525 40bb568
Настройки программы : cabac=1 / ref=9 / deblock=1:-3:-3 / analyse=0x3:0x133 / me=umh / subme=10 / psy=1 / psy_rd=0.95:0.00 / mixed_ref=1 / me_range=32 / chroma_me=1 / trellis=2 / 8x8dct=1 / cqm=0 / deadzone=21,11 / fast_pskip=0 / chroma_qp_offset=-2 / threads=6 / lookahead_threads=1 / sliced_threads=0 / nr=0 / decimate=1 / interlaced=0 / bluray_compat=0 / constrained_intra=0 / bframes=12 / b_pyramid=2 / b_adapt=2 / b_bias=0 / direct=3 / weightb=1 / open_gop=0 / weightp=2 / keyint=240 / keyint_min=23 / scenecut=40 / intra_refresh=0 / rc_lookahead=60 / rc=2pass / mbtree=0 / bitrate=11200 / ratetol=1.0 / qcomp=0.60 / qpmin=0 / qpmax=56 / qpstep=4 / cplxblur=20.0 / qblur=0.5 / vbv_maxrate=50000 / vbv_bufsize=62500 / nal_hrd=none / ip_ratio=1.30 / pb_ratio=1.20 / aq=1:0.80
Язык : English
Default : Да
Forced : Нет
Аудио #1
Идентификатор : 2
Формат : AC-3
Формат/Информация : Audio Coding 3
Расширение режима : CM (complete main)
Параметр Endianness формата : Big
Идентификатор кодека : A_AC3
Продолжительность : 2 ч. 19 м.
Вид битрейта : Постоянный
Битрейт : 192 Кбит/сек
Каналы : 2 канала
Расположение каналов : Front: L R
Частота : 48,0 КГц
Битовая глубина : 16 бит
Метод сжатия : С потерями
Размер потока : 192 Мбайт (2%)
Заголовок : AC3 2.0ch 192kbps - дубляж (студия "Синхрон" - "Хлопушка")
Язык : Russian
Default : Да
Forced : Нет
Аудио #2
Идентификатор : 3
Формат : AC-3
Формат/Информация : Audio Coding 3
Расширение режима : CM (complete main)
Параметр Endianness формата : Big
Идентификатор кодека : A_AC3
Продолжительность : 2 ч. 19 м.
Вид битрейта : Постоянный
Битрейт : 192 Кбит/сек
Каналы : 2 канала
Расположение каналов : Front: L R
Частота : 48,0 КГц
Битовая глубина : 16 бит
Метод сжатия : С потерями
Размер потока : 192 Мбайт (2%)
Заголовок : AC3 2.0ch 192kbps - многоголосый (DVD9.NTSC)
Язык : Russian
Default : Нет
Forced : Нет
Аудио #3
Идентификатор : 4
Формат : AC-3
Формат/Информация : Audio Coding 3
Расширение режима : CM (complete main)
Параметр Endianness формата : Big
Идентификатор кодека : A_AC3
Продолжительность : 2 ч. 19 м.
Вид битрейта : Постоянный
Битрейт : 192 Кбит/сек
Каналы : 2 канала
Расположение каналов : Front: L R
Частота : 48,0 КГц
Битовая глубина : 16 бит
Метод сжатия : С потерями
Размер потока : 192 Мбайт (2%)
Заголовок : AC3 2.0ch 192kbps - двухголосый ("Инис" - Союз видео)
Язык : Russian
Default : Нет
Forced : Нет
Аудио #4
Идентификатор : 5
Формат : AC-3
Формат/Информация : Audio Coding 3
Расширение режима : CM (complete main)
Параметр Endianness формата : Big
Идентификатор кодека : A_AC3
Продолжительность : 2 ч. 19 м.
Вид битрейта : Постоянный
Битрейт : 192 Кбит/сек
Каналы : 2 канала
Расположение каналов : Front: L R
Частота : 48,0 КГц
Битовая глубина : 16 бит
Метод сжатия : С потерями
Размер потока : 192 Мбайт (2%)
Заголовок : AC3 2.0ch 192kbps - одноголосый (VHS)
Язык : Russian
Default : Нет
Forced : Нет
Аудио #5
Идентификатор : 6
Формат : FLAC
Формат/Информация : Free Lossless Audio Codec
Идентификатор кодека : A_FLAC
Продолжительность : 2 ч. 19 м.
Вид битрейта : Переменный
Каналы : 2 канала
Частота : 48,0 КГц
Битовая глубина : 16 бит
Заголовок : FLAC 2.0ch 16-bit ~594kbps - original (LPCM 2.0/16/1536)
Библиотека кодирования : libFLAC 1.2.1 (UTC 2007-09-17)
Язык : English
Default : Нет
Forced : Нет
Текст #1
Идентификатор : 7
Формат : UTF-8
Идентификатор кодека : S_TEXT/UTF8
Идентификатор кодека/Информация : UTF-8 Plain Text
Язык : Russian
Default : Нет
Forced : Нет
Текст #2
Идентификатор : 8
Формат : UTF-8
Идентификатор кодека : S_TEXT/UTF8
Идентификатор кодека/Информация : UTF-8 Plain Text
Язык : English
Default : Нет
Forced : Нет
Текст #3
Идентификатор : 9
Формат : UTF-8
Идентификатор кодека : S_TEXT/UTF8
Идентификатор кодека/Информация : UTF-8 Plain Text
Заголовок : SDH
Язык : English
Default : Нет
Forced : Нет
Меню
00:00:00.000 : en: 00:00:00
00:12:02.056 : en: 00:12:02
00:22:30.056 : en: 00:22:30
00:32:50.056 : en: 00:32:50
00:40:47.056 : en: 00:40:47
00:50:42.056 : en: 00:50:42
00:59:38.056 : en: 00:59:38
01:09:49.056 : en: 01:09:49
01:18:47.056 : en: 01:18:47
01:28:28.056 : en: 01:28:28
01:38:47.056 : en: 01:38:47
01:47:42.056 : en: 01:47:42
01:58:40.056 : en: 01:58:40
02:08:01.056 : en: 02:08:01
02:16:28.056 : en: 02:16:28
Скриншоты
Скачать

Скачать торрент!

Как скачивать? · Что такое торрент? · Рейтинг и ограничения

Сайт не распространяет и не хранит электронные версии произведений, а лишь предоставляет доступ к создаваемому пользователями каталогу ссылок на торрент-файлы, которые содержат только списки хеш-сумм

[Профиль] [ЛС]
Показать сообщения:    
Ответить на тему

Текущее время: Сегодня 03:45

Часовой пояс: GMT + 4



Вы не можете начинать темы
Вы не можете отвечать на сообщения
Вы не можете редактировать свои сообщения
Вы не можете удалять свои сообщения
Вы не можете голосовать в опросах
Вы не можете прикреплять файлы к сообщениям
Вы не можете скачивать файлы