Глупая звезда (Юрий Стыцковский) [2007, драма, мелодрама, DVDRip]

Ответить на тему
 
Автор Сообщение

user ®

Стаж: 7 лет 7 месяцев

Сообщений: 20008

Пост Пост: #1 от 15-Янв-2015 01:18

[Цитировать]

Глупая звезда
Жанр: драма, мелодрама
Год выпуска: 2007
Продолжительность: 01:29:36
Режиссёр: Юрий Стыцковский
В ролях: Надежда Бабкина, Маргарита Быстрякова, Сергей Шакуров, Евгений Ефремов, Ярослав Жалнин, Валерия Ланская, Сергей Романюк, Татьяна Несвидоменко, Александра Цымбалюк, Любовь Кожедуб
Описание: Эля Найденова — круглая сирота. Она выросла в детдоме. Но теперь ей семнадцать — пришло время покидать стены приюта и начинать жить самостоятельно. Директор учреждения советует Эле непременно поступать в педагогический институт, потому что прекрасно знает о незаурядных способностях своей воспитанницы. Но девушка мечтает о карьере певицы. У нее прекрасный голос, и не воспользоваться этим талантом было бы преступлением. Однажды Найденова случайно узнает, что на телевидении совсем скоро будет проходить конкурс вокалистов «Звездные войны», победитель которого получит шанс стать звездой эстрады. На отборочный тур могут прийти все желающие. Наивная и совсем не знающая жизни Эля отправляется покорять столицу. Девушка верит в свои силы и в то, что в шоу-бизнесе все по-честному...
Сэмпл: http://multi-up.com/1026570
Качество видео: DVDRip
Формат видео: AVI
Видео: DivX, 720х400 (19:9), 1986 кбит/с, 25 fps
Аудио: AC3, 192 кбит/с, 2 ch, 48 КГц
MediaInfo
Общее
Полное имя : D:\Glupay.Zvezda_2007.DVDRip.avi
Формат : AVI
Формат/Информация : Audio Video Interleave
Размер файла : 1,37 Гбайт
Продолжительность : 1 ч. 29 м.
Общий поток : 2187 Кбит/сек
Программа кодирования : VirtualDubMod 1.5.10.3 | www.virtualdub-fr.org || (build 2550/release)
Библиотека кодирования : VirtualDubMod build 2550/release
Видео
Идентификатор : 0
Формат : MPEG-4 Visual
Профиль формата : Advanced Simple@L5
Параметр BVOP формата : 1
Параметр QPel формата : Нет
Параметр GMC формата : Без точки перехода
Параметр матрицы формата : Default (MPEG)
Идентификатор кодека : DX50
Идентификатор кодека/Подсказка : DivX 5
Продолжительность : 1 ч. 29 м.
Битрейт : 1986 Кбит/сек
Ширина : 720 пикселей
Высота : 400 пикселей
Соотношение сторон : 16:9
Частота кадров : 25,000 кадров/сек
Цветовое пространство : YUV
Субдискретизация насыщенности : 4:2:0
Битовая глубина : 8 бит
Тип развёртки : Прогрессивная
Метод сжатия : С потерями
Бит/(Пиксели*Кадры) : 0.276
Размер потока : 1,24 Гбайт (91%)
Библиотека кодирования : XviD 1.2.1 (UTC 2008-12-04)
Аудио
Идентификатор : 1
Формат : AC-3
Формат/Информация : Audio Coding 3
Расширение режима : CM (complete main)
Параметр Endianness формата : Big
Идентификатор кодека : 2000
Продолжительность : 1 ч. 29 м.
Вид битрейта : Постоянный
Битрейт : 192 Кбит/сек
Каналы : 2 канала
Расположение каналов : Front: L R
Частота : 48,0 КГц
Битовая глубина : 16 бит
Метод сжатия : С потерями
Размер потока : 123 Мбайт (9%)
Выравнивание : Разделение по промежуткам
Продолжительность промежутка : 40 мс. (1,00 видеокадр)
Время предзагрузки промежутка : 500 мс.
Скриншот c названием фильма Скриншоты
Скачать

Скачать торрент!

Как скачивать? · Что такое торрент? · Рейтинг и ограничения

Сайт не распространяет и не хранит электронные версии произведений, а лишь предоставляет доступ к создаваемому пользователями каталогу ссылок на торрент-файлы, которые содержат только списки хеш-сумм

[Профиль] [ЛС]
Показать сообщения:    
Ответить на тему

Текущее время: Сегодня 22:17

Часовой пояс: GMT + 4



Вы не можете начинать темы
Вы не можете отвечать на сообщения
Вы не можете редактировать свои сообщения
Вы не можете удалять свои сообщения
Вы не можете голосовать в опросах
Вы не можете прикреплять файлы к сообщениям
Вы не можете скачивать файлы