Поймать Санту / Santa Hunters (Сэвидж Стив Холланд / Savage Steve Holland) [2014, США, Канада, комедия, детский, семейный, DVB] Dub + Original Eng

Ответить на тему
 
Автор Сообщение

user ®

Стаж: 7 лет 7 месяцев

Сообщений: 20008

Пост Пост: #1 от 15-Янв-2015 01:18

[Цитировать]

Поймать Санту / Santa Hunters- Страна: США, Канада
Жанр: комедия, детский, семейный
Год выпуска: 2014
Продолжительность: 01:05:19
Перевод: Профессиональный (дублированный) - Студия "Кипарис" / Канал "Nickelodeon Russia"
Оригинальная дорожка: английский
Cубтитры: нет-Режиссер: Сэвидж Стив Холланд / Savage Steve Holland
В ролях: Эйприл Телек, Мейс Коронел, Бреанна Иде, Бенжамин Флорес мл., Лайя ДеЛеон Хэйес, Келли Перин, Донаван Стинсон, Серж Уд, Лиза МакФадден...- | Релиз: -Описание: Девятилетний Алекс знает, что Санта существует, и намерен это доказать. Вместе с кузиной Зои и другими членами семьи он хочет с помощью хитроумных ловушек и видеооборудования поймать Санту с поличным в канун Рождества. Однако им невдомёк, что если люди увидят Санту, то тот лишится своей Рождественской магии. Видеозапись, доказывающая существование Санты, оказывается в руках зловредной Наташи, и теперь Алекс вместе со своей семьей должен вернуть запись и спасти Рождество для всего человечества. Исчезнет ли старый добрый Санта и праздник Рождества, или дети поймут, что верить важнее, чем видеть?-Семпл: http://sendfile.su/1070427-Качество видео: DVB (Канал "Nickelodeon Russia")
Формат видео: MKV
Видео: 720x576 (16:9) @ 1024x576, 25.000 fps, MPEG-2 Video, ~3155 Kbps, 0.152 bits/pixel
Аудио #1: Русский, 48.0 KHz, MP2, 2 ch, 256 Kbps - Дубляж | "Кипарис"
Аудио #2: English, 48.0 KHz, MP2, 2 ch, 256 Kbps - Original
MediaInfo
GeneralUnique ID : 237828713395974395616155789322522765102 (0xB2EC24E2318C8F2D92A51FD24C44A72E)Complete name : Santa Hunters 2014 Nickelodeon Dub Kiparis.rus.eng.mkvFormat : MatroskaFormat version : Version 4 / Version 2File size : 1.71 GiBDuration : 1h 5mnOverall bit rate mode : VariableOverall bit rate : 3 742 KbpsEncoded date : UTC 2015-01-06 14:14:32Writing application : mkvmerge v7.5.0 ('Glass Culture') 64bit built on Jan 4 2015 16:48:44Writing library : libebml v1.3.1 + libmatroska v1.4.2Attachements : poster.jpg
VideoID : 1Format : MPEG VideoFormat version : Version 2Format profile : Main@MainFormat settings, BVOP : YesFormat settings, Matrix : CustomFormat settings, GOP : M=3, N=24Format settings, picture structure : FrameCodec ID : V_MPEG2Codec ID/Info : MPEG 1 or 2 VideoDuration : 1h 5mnBit rate mode : VariableBit rate : 3 155 KbpsMaximum bit rate : 5 000 KbpsWidth : 720 pixelsHeight : 576 pixelsDisplay aspect ratio : 16:9Frame rate mode : ConstantFrame rate : 25.000 fpsStandard : PALColor space : YUVChroma subsampling : 4:2:0Bit depth : 8 bitsScan type : InterlacedScan order : Top Field FirstCompression mode : LossyBits/(Pixel*Frame) : 0.304Time code of first frame : 00:00:00:00Time code source : Group of pictures headerGOP, Open/Closed : OpenStream size : 1.44 GiB (84%)Language : EnglishDefault : YesForced : NoGOP, Open/Closed of first frame : Closed
Audio #1ID : 2Format : MPEG AudioFormat version : Version 1Format profile : Layer 2Codec ID : A_MPEG/L2Codec ID/Hint : MP2Duration : 1h 5mnBit rate mode : ConstantBit rate : 256 KbpsChannel(s) : 2 channelsSampling rate : 48.0 KHzCompression mode : LossyStream size : 120 MiB (7%)Title : Дубляж | "Кипарис"Language : RussianDefault : YesForced : No
Audio #2ID : 3Format : MPEG AudioFormat version : Version 1Format profile : Layer 2Codec ID : A_MPEG/L2Codec ID/Hint : MP2Duration : 1h 5mnBit rate mode : ConstantBit rate : 256 KbpsChannel(s) : 2 channelsSampling rate : 48.0 KHzCompression mode : LossyStream size : 120 MiB (7%)Title : OriginalLanguage : EnglishDefault : NoForced : No
Скриншоты
Скачать

Скачать торрент!

Как скачивать? · Что такое торрент? · Рейтинг и ограничения

Сайт не распространяет и не хранит электронные версии произведений, а лишь предоставляет доступ к создаваемому пользователями каталогу ссылок на торрент-файлы, которые содержат только списки хеш-сумм

[Профиль] [ЛС]
Показать сообщения:    
Ответить на тему

Текущее время: Сегодня 22:23

Часовой пояс: GMT + 4



Вы не можете начинать темы
Вы не можете отвечать на сообщения
Вы не можете редактировать свои сообщения
Вы не можете удалять свои сообщения
Вы не можете голосовать в опросах
Вы не можете прикреплять файлы к сообщениям
Вы не можете скачивать файлы