Бывшие / Ex-Files (Тянь Юйшен / Tian Yusheng) [2014, Китай, романтика, комедия, WEB-DLRip] MVO (STEPonee)

Ответить на тему
 
Автор Сообщение

user ®

Стаж: 13 лет

Сообщений: 15071

Пост Пост: #1 от 14-Янв-2015 22:12

[Цитировать]

Бывшие / Ex-Files / 前任攻略
Год выпуска: 2014
Страна: Китай
Жанр: романтическая комедия
Продолжительность: 01:48:49
Перевод: любительский (многоголосый закадровый) [STEPonee]

Русские субтитры: нет
Режиссёр: Тянь Юйшен (Tian Yusheng)
В ролях:
  • Хань Гэн (Han Geng) - Мэн Юнь
  • Хелен Яо (Helen Yao) - Ся Лу
  • Райан Чжен (Ryan Zheng) - Юй Фэй, друг Мэн Юня
  • Ван Ликунь (Wang Likun) - Ло Цянь, сокурсница Мэн Юня
  • Ли Сан Ёп (Lee Sang Yeop) - Пак Ын Хо, бывший парень Ся Лу
  • Бань Цзяцзя (Ban Jiajia) - Сяо Вэн, подруга Ся Лу
  • Чжан Ханью (Zhang Hanyu) - Чжао Мин
    Описание
    31-летний Мэн Юнь идёт по жизни легко. У него свой бизнес на паях с сокурсницей, хорошие друзья, и девушки не обходят вниманием. Но время поджимает, пора бы подумать о серьёзных отношениях, о семье. И где же она, та, единственная? Будучи приглашённым на свадьбу одной из своих бывших девушек, он встречает там Ся Лу, которая переворачивает всю его жизнь. Но при этом Мэн Юнь не только нашёл любовь. Он также понял, какую любовь потерял.
    Сэмпл
    Роли озвучивали:
  • Юрий Балякин
  • Ксения Дмитриева
  • Наталья Скребнева
  • Сергей Здоренко
  • Денис Поляков
  • Натиа Макаридзе
    Перевод на русский язык: Татьяна Веденкина
    Скриншот c названием фильма
Качество: WEB-DLRip (EX-Files.2014.720p.WEB-DL.x264.AC3-dydao)
Формат: AVI
Видео: XviD, 720x304 (16:9), 23,976 к/с, 1734 кбит/с
Аудио: AC3 2.0, 48 кГц, 192 кбит/с
Отчёт MediaInfo
General
Complete name : EX-Files.2014.XviD.AC3.MVO.STEPonee.avi
Format : AVI
Format/Info : Audio Video Interleave
File size : 1.47 GiB
Duration : 1h 48mn
Overall bit rate : 1 935 Kbps
Writing application : VirtualDubMod 1.5.10.2 (build 2542/release)
Writing library : VirtualDubMod build 2542/release
Video
ID : 0
Format : MPEG-4 Visual
Format profile : Advanced Simple@L5
Format settings, BVOP : 1
Format settings, QPel : No
Format settings, GMC : No warppoints
Format settings, Matrix : Default (H.263)
Codec ID : XVID
Codec ID/Hint : XviD
Duration : 1h 48mn
Bit rate : 1 734 Kbps
Width : 720 pixels
Height : 304 pixels
Display aspect ratio : 2.35:1
Frame rate : 23.976 fps
Color space : YUV
Chroma subsampling : 4:2:0
Bit depth : 8 bits
Scan type : Progressive
Compression mode : Lossy
Bits/(Pixel*Frame) : 0.330
Stream size : 1.32 GiB (90%)
Writing library : XviD 1.2.1 (UTC 2008-12-04)
Audio
ID : 1
Format : AC-3
Format/Info : Audio Coding 3
Mode extension : CM (complete main)
Format settings, Endianness : Big
Codec ID : 2000
Duration : 1h 48mn
Bit rate mode : Constant
Bit rate : 192 Kbps
Channel(s) : 2 channels
Channel positions : Front: L R
Sampling rate : 48.0 KHz
Bit depth : 16 bits
Compression mode : Lossy
Stream size : 149 MiB (10%)
Alignment : Split accross interleaves
Interleave, duration : 42 ms (1.00 video frame)
Interleave, preload duration : 500 ms
Скриншоты Подготовка релиза:
  • Юрий Балякин - редакция, обработка звука, монтаж
  • Виктория Гражик - тайминг
  • Екатерина Проц - постер
    Все раздачи студии
[url=http://***/forum/tracker.php?nm=steponee]Все разделы[/url]
[url=http://***/forum/tracker.php?f=915&nm=steponee]Корейские сериалы[/url]
[url=http://***/forum/tracker.php?f=1939&nm=steponee]Японские сериалы[/url]
[url=http://***/forum/tracker.php?f=2412&nm=steponee]Прочие азиатские сериалы[/url]
[url=http://***/forum/tracker.php?f=934&nm=steponee]Азиатские фильмы[/url]
[url=http://***/forum/tracker.php?rid=2669478/]Мои переводы и раздачи[/url]
Скачать

Скачать торрент! Бывшие / Ex-Files (Тянь Юйшен / Tian Yusheng) [2014, Китай, романтика, комедия, WEB-DLRip] MVO (STEPonee)

Как скачивать? · Что такое торрент? · Рейтинг и ограничения

Сайт не распространяет и не хранит электронные версии произведений, а лишь предоставляет доступ к создаваемому пользователями каталогу ссылок на торрент-файлы, которые содержат только списки хеш-сумм

[Профиль] [ЛС]
Показать сообщения:    
Ответить на тему

Текущее время: Сегодня 21:15

Часовой пояс: GMT + 4



Вы не можете начинать темы
Вы не можете отвечать на сообщения
Вы не можете редактировать свои сообщения
Вы не можете удалять свои сообщения
Вы не можете голосовать в опросах
Вы не можете прикреплять файлы к сообщениям
Вы не можете скачивать файлы