Ятринская ведьма (Борис Шадурский) [1991, история, драма, VHSRip]

Ответить на тему
 
Автор Сообщение

user ®

Стаж: 7 лет 7 месяцев

Сообщений: 20008

Пост Пост: #1 от 14-Янв-2015 22:12

[Цитировать]

Ятринская ведьма Жанр: история, драма
Год выпуска: 1991
Продолжительность: 01:39:25
Режиссёр: Борис Шадурский
В ролях: Донатас Банионис, Борис Невзоров, Людмила Шевель, Гедиминас Сторпирштис, Игорь Волков, Александра Яковлева(Аасмяэ), Лев Перфилов, Александр Баринов, Иван Мацкевич, Зигмунт Малянович
Описание: Действие фильма происходит в XVI веке. Сын воеводы Корсак влюблён в красавицу Регину, жену ятринского священника, однако его ожидает служба у короля. Поскольку для Корсака отъезд равносилен смерти, он решает остаться. Однако многие считают, что Регина — ведьма, что она околдовала Корсака. Толки становятся гипотезой, и вскоре проходит суд. По его результатам Регину должны сжечь.
Доп. информация: Этот фильм долгое время считался утерянным, на ДВД не издавался и не реставрировался. Качество записи очень слабое, картинка дергается. Так что перед скачиванием смотрите скриншоты и качайте сэмпл.
Сэмпл: http://multi-up.com/1026471
Качество видео: VHSRip
Формат видео: AVI
Видео: 688x512 (1.34:1), 25 fps, XviD build 47 ~1725 kbps avg, 0.20 bit/pixel
Аудио: 48 kHz, AC3 Dolby Digital, 2/0 (L,R) ch, ~224 kbps
Релиз:

MediaInfo
Format : AVI
Format/Info : Audio Video Interleave
File size : 1.36 GiB
Duration : 1h 39mn
Overall bit rate : 1 960 Kbps
Writing application : VirtualDubMod 1.5.10.2 (build 2540/release)
Writing library : VirtualDubMod build 2540/release
Video
ID : 0
Format : MPEG-4 Visual
Format profile : Advanced Simple@L5
Format settings, BVOP : 1
Format settings, QPel : No
Format settings, GMC : No warppoints
Format settings, Matrix : Default (MPEG)
Codec ID : XVID
Codec ID/Hint : XviD
Duration : 1h 39mn
Bit rate : 1 726 Kbps
Width : 688 pixels
Height : 512 pixels
Display aspect ratio : 4:3
Frame rate : 25.000 fps
Color space : YUV
Chroma subsampling : 4:2:0
Bit depth : 8 bits
Scan type : Progressive
Compression mode : Lossy
Bits/(Pixel*Frame) : 0.196
Stream size : 1.20 GiB (88%)
Writing library : XviD 1.2.0.dev47 (UTC 2006-11-01)
Audio
ID : 1
Format : AC-3
Format/Info : Audio Coding 3
Mode extension : CM (complete main)
Format settings, Endianness : Big
Codec ID : 2000
Duration : 1h 39mn
Bit rate mode : Constant
Bit rate : 224 Kbps
Channel(s) : 2 channels
Channel positions : Front: L R
Sampling rate : 48.0 KHz
Bit depth : 16 bits
Compression mode : Lossy
Stream size : 159 MiB (11%)
Alignment : Split accross interleaves
Interleave, duration : 40 ms (1.00 video frame)
Interleave, preload duration : 500 ms
Скриншот c названием фильма Скриншоты Огромное спасибо Voqkrre, Faulenzer, AlexNever, zenya_1985 за появление этого релиза, Mizantrop за исходную VHS, sasha20072007 за очистку от шумов звуковой дорожки!
Скачать

Скачать торрент!

Как скачивать? · Что такое торрент? · Рейтинг и ограничения

Сайт не распространяет и не хранит электронные версии произведений, а лишь предоставляет доступ к создаваемому пользователями каталогу ссылок на торрент-файлы, которые содержат только списки хеш-сумм

[Профиль] [ЛС]
Показать сообщения:    
Ответить на тему

Текущее время: Сегодня 23:19

Часовой пояс: GMT + 4



Вы не можете начинать темы
Вы не можете отвечать на сообщения
Вы не можете редактировать свои сообщения
Вы не можете удалять свои сообщения
Вы не можете голосовать в опросах
Вы не можете прикреплять файлы к сообщениям
Вы не можете скачивать файлы