Пересмешник / Mockingbird (Брайан Бертино / Bryan Bertino) [2014, США, Ужасы, WEB-DLRip] VO (datynet) + Original Eng

Ответить на тему
 
Автор Сообщение

user ®

Стаж: 7 лет 7 месяцев

Сообщений: 20008

Пост Пост: #1 от 14-Янв-2015 22:12

[Цитировать]

Пересмешник / Mockingbird
Страна: США
Жанр: Ужасы
Год выпуска: 2014
Продолжительность: 01:39:56
Перевод: Одноголосый (закадровый) [datynet]
Оригинальная аудиодорожка: английская
Cубтитры: нет
Режиссер: Брайан Бертино / Bryan Bertino
В ролях:Одри Мари Андерсон, Аливия Элин Линд, Бенджамин Стокхэм, Эмили Элин Линд, Натали Элин Линд, Тодд Стэшвик, Ли Гарлингтон, Спенсер Лист, Александра Лайдон, Изабелла Мурад
Описание:Трое случайных людей под вечер обнаружили у своих дверей работающие видеокамеры и сообщение, что все они выбраны для участия в неком конкурсе. Никто из конкурсантов не был знаком друг с другом, но с этого момента их судьбам стало суждено пересечься, причём самым трагичным образом.

Качество: WEB-DLRip
Контейнер: AVI
Видео: 720x400 (1.80:1), 23.976 fps, XviD build 65 ~1997 kbps avg, 0.29 bit/pixel
Аудио 1: 44.100 kHz, MPEG Layer 3, 2 ch, ~192.00 kbps avg |Rus
Аудио 2: 48 kHz, AC3 Dolby Digital, 2/0 (L,R) ch, ~192 kbps |Eng

MI
Общее
Полное имя : C:\Users\Пользователь\Downloads\Mockingbird.2014.L1.WEB-DLRip.avi
Формат : AVI
Формат/Информация : Audio Video Interleave
Размер файла : 1,37 Гбайт
Продолжительность : 1 ч. 21 м.
Общий поток : 2396 Кбит/сек
Программа кодирования : VirtualDubMod 1.5.10.3 | www.virtualdub-fr.org || (build 2550/release)
Библиотека кодирования : VirtualDubMod build 2550/release
Видео
Идентификатор : 0
Формат : MPEG-4 Visual
Профиль формата : Advanced Simple@L5
Параметр BVOP формата : 2
Параметр QPel формата : Нет
Параметр GMC формата : Без точки перехода
Параметр матрицы формата : Default (H.263)
Идентификатор кодека : XVID
Идентификатор кодека/Подсказка : XviD
Продолжительность : 1 ч. 21 м.
Битрейт : 1998 Кбит/сек
Ширина : 720 пикселей
Высота : 400 пикселей
Соотношение сторон : 16:9
Частота кадров : 23,976 кадра/сек
Цветовое пространство : YUV
Субдискретизация насыщенности : 4:2:0
Битовая глубина : 8 бит
Тип развёртки : Прогрессивная
Метод сжатия : С потерями
Бит/(Пиксели*Кадры) : 0.289
Размер потока : 1,14 Гбайт (83%)
Библиотека кодирования : XviD 65
Аудио #1
Идентификатор : 1
Формат : MPEG Audio
Версия формата : Version 1
Профиль формата : Layer 3
Идентификатор кодека : 55
Идентификатор кодека/Подсказка : MP3
Продолжительность : 1 ч. 21 м.
Вид битрейта : Постоянный
Битрейт : 192 Кбит/сек
Каналы : 2 канала
Частота : 44,1 КГц
Метод сжатия : С потерями
Размер потока : 113 Мбайт (8%)
Выравнивание : Разделение по промежуткам
Продолжительность промежутка : 42 мс. (1,00 видеокадр)
Время предзагрузки промежутка : 500 мс.
Аудио #2
Идентификатор : 2
Формат : AC-3
Формат/Информация : Audio Coding 3
Расширение режима : CM (complete main)
Параметр Endianness формата : Big
Идентификатор кодека : 2000
Продолжительность : 1 ч. 21 м.
Вид битрейта : Постоянный
Битрейт : 192 Кбит/сек
Каналы : 2 канала
Расположение каналов : Front: L R
Частота : 48,0 КГц
Битовая глубина : 16 бит
Метод сжатия : С потерями
Размер потока : 113 Мбайт (8%)
Выравнивание : Разделение по промежуткам
Продолжительность промежутка : 42 мс. (1,00 видеокадр)
Время предзагрузки промежутка : 500 мс.
Скриншоты
Скачать

Скачать торрент!

Как скачивать? · Что такое торрент? · Рейтинг и ограничения

Сайт не распространяет и не хранит электронные версии произведений, а лишь предоставляет доступ к создаваемому пользователями каталогу ссылок на торрент-файлы, которые содержат только списки хеш-сумм

[Профиль] [ЛС]
Показать сообщения:    
Ответить на тему

Текущее время: Сегодня 02:15

Часовой пояс: GMT + 4



Вы не можете начинать темы
Вы не можете отвечать на сообщения
Вы не можете редактировать свои сообщения
Вы не можете удалять свои сообщения
Вы не можете голосовать в опросах
Вы не можете прикреплять файлы к сообщениям
Вы не можете скачивать файлы