Немного кунг-фу / Кое-что из кунг-фу / Кунфуист недоумок / Half a Loaf of Kung Fu / Karate Bomber (Чен Чи-Хва / Chen Chi-Hwa) [1978, Гонконг, Тайвань, боевик, боевые искусства, BDRip] MVO (ДТВ)

Ответить на тему
 
Автор Сообщение

user ®

Стаж: 13 лет

Сообщений: 15071

Пост Пост: #1 от 14-Янв-2015 02:39

[Цитировать]

Немного кунг-фу / Кое-что из кунг-фу / Кунфуист недоумок / За пригоршню долларов
Half a Loaf of Kung Fu / Karate Bomber / Dian zhi gong fu gan chian chan
- Страна: Гонконг, Тайвань
Жанр: боевик, комедия, боевые искусства
Год выпуска: 1978
Продолжительность: 01:37:39
Перевод: Профессиональный (многоголосый закадровый) ДТВ
Cубтитры: нет
Оригинальная аудиодорожка: нет-Режиссер: Чен Чи-Хва / Chen Chi-Hwa
Сценарий: Джеки Чан / Jackie Chan, Минг Чи Тэнг / Ming Chi Tang
Продюсер: Вэй Ло / Wei Lo, Сан Мин Лу / San Min Lu
Оператор: Чин-Чу Чэнь / Ching-Chu Chen
Композитор: Фрэнки Чан / Frankie Chan-В ролях:
Джеки Чан (Jiang), Джеймс Тьен (Mao), Чун-Ер Ланг (Fong), Чжон-Нам Ким (Jeong-Nam Kim), Чи-Пинг Чанг (...), Кенг Пенг (...), Кан Хо (...), Ди Тсе (...).-Мировая премьера: 1 июля 1980-Описание:
Безработный проходимец Чанг (Джеки Чан) становится свидетелем поединка между двумя мастерами кунгфу. Один из них погибает и Чанг забирает себе его кнут – из-за чего его принимают за погибшего. Чанг и рад свалившемуся на него почету и уважению, только вот до мастера кунгфу ему, как до Луны.-Рейтинг
kinopoisk.ru: 6.247 (369)
imdb.com: 5.90 (1125)
MPAA: - Детям до 17 лет обязательно присутствие родителей-Качество видео: BD-Rip | « maksnew / 1080p. MPEG-4 AVC. BD-Remux »
Формат видео: AVI ///СОВМЕСТИМО С БЫТОВЫМИ ПЛЕЕРАМИ///→ //SAMPLE//
Видео: 720x304 (2.37:1), 23.976 fps, XviD build 65 ~1909 kbps avg, 0.36 bit/pixel
Аудио: 48.0 kHz, AC3 Dolby Digital, 2/0 (L,R) ch, ~224 kbps | MVO
Размер: 1496.77 Mb (1/3 DVD-R)
-MediaInfo
Общее
Полное имя : D:\Фильмы\Half_a_Loaf_of_Kung_Fu.1978.BD-Rip.XviD.1,46Gb.AC3.avi
Формат : AVI
Формат/Информация : Audio Video Interleave
Размер файла : 1,46 Гбайт
Продолжительность : 1 ч. 37 м.
Общий поток : 2143 Кбит/сек
Программа кодирования : VirtualDubMod 1.5.10.3 | www.virtualdub-fr.org || (build 2550/release)
Библиотека кодирования : VirtualDubMod build 2550/release
Видео
Идентификатор : 0
Формат : MPEG-4 Visual
Профиль формата : Advanced Simple@L5
Параметр BVOP формата : 1
Параметр QPel формата : Нет
Параметр GMC формата : Без точки перехода
Параметр матрицы формата : Выборочная
Идентификатор кодека : XVID
Идентификатор кодека/Подсказка : XviD
Продолжительность : 1 ч. 37 м.
Битрейт : 1909 Кбит/сек
Ширина : 720 пикселей
Высота : 304 пикселя
Соотношение сторон : 2,35:1
Частота кадров : 23,976 кадра/сек
Цветовое пространство : YUV
Субдискретизация насыщенности : 4:2:0
Битовая глубина : 8 бит
Тип развёртки : Прогрессивная
Метод сжатия : С потерями
Бит/(Пиксели*Кадры) : 0.364
Размер потока : 1,30 Гбайт (89%)
Библиотека кодирования : XviD 65
Аудио
Идентификатор : 1
Формат : AC-3
Формат/Информация : Audio Coding 3
Расширение режима : CM (complete main)
Параметр Endianness формата : Big
Идентификатор кодека : 2000
Продолжительность : 1 ч. 37 м.
Вид битрейта : Постоянный
Битрейт : 224 Кбит/сек
Каналы : 2 канала
Расположение каналов : Front: L R
Частота : 48,0 КГц
Битовая глубина : 16 бит
Метод сжатия : С потерями
Размер потока : 156 Мбайт (10%)
Выравнивание : Разделение по промежуткам
Продолжительность промежутка : 42 мс. (1,00 видеокадр)
Время предзагрузки промежутка : 500 мс.
MI-Source
Общее
Уникальный идентификатор : 223801551082787658485575121615359188673 (0xA85E9C62D522026AAA2895743CD61EC1)
Полное имя : D:\Фильмы\Half a Loaf of Kung Fu 1978 BDRemux 1080p.mkv
Формат : Matroska
Версия формата : Version 4 / Version 2
Размер файла : 25,3 Гбайт
Продолжительность : 1 ч. 37 м.
Режим общего битрейта : Переменный
Общий поток : 37,0 Мбит/сек
Дата кодирования : UTC 2015-01-10 07:41:49
Программа кодирования : mkvmerge v7.4.0 ('Circles') 64bit built on Dec 12 2014 12:19:56
Библиотека кодирования : libebml v1.3.0 + libmatroska v1.4.1
DURATION : 01:37:37.152000000
NUMBER_OF_FRAMES : 183036
NUMBER_OF_BYTES : 164000256
_STATISTICS_WRITING_APP : mkvmerge v7.4.0 ('Circles') 64bit built on Dec 12 2014 12:19:56
_STATISTICS_WRITING_DATE_UTC : 2015-01-10 07:41:49
_STATISTICS_TAGS : BPS DURATION NUMBER_OF_FRAMES NUMBER_OF_BYTES
Видео
Идентификатор : 1
Формат : AVC
Формат/Информация : Advanced Video Codec
Профиль формата : High@L4.1
Параметр CABAC формата : Да
Параметр ReFrames формата : 4 кадра
Идентификатор кодека : V_MPEG4/ISO/AVC
Продолжительность : 1 ч. 37 м.
Вид битрейта : Переменный
Максимальный битрейт : 37,0 Мбит/сек
Ширина : 1920 пикселей
Высота : 1080 пикселей
Соотношение сторон : 16:9
Режим частоты кадров : Постоянный
Частота кадров : 23,976 кадра/сек
Цветовое пространство : YUV
Субдискретизация насыщенности : 4:2:0
Битовая глубина : 8 бит
Тип развёртки : Прогрессивная
Default : Да
Forced : Нет
Аудио #1
Идентификатор : 2
Формат : AC-3
Формат/Информация : Audio Coding 3
Расширение режима : CM (complete main)
Параметр Endianness формата : Big
Идентификатор кодека : A_AC3
Продолжительность : 1 ч. 37 м.
Вид битрейта : Постоянный
Битрейт : 224 Кбит/сек
Каналы : 2 канала
Расположение каналов : Front: L R
Частота : 48,0 КГц
Битовая глубина : 16 бит
Метод сжатия : С потерями
Размер потока : 156 Мбайт (1%)
Заголовок : ДТВ
Язык : Russian
Default : Да
Forced : Нет
Аудио #2
Идентификатор : 3
Формат : DTS
Формат/Информация : Digital Theater Systems
Профиль формата : MA / Core
Режим : 16
Параметр Endianness формата : Big
Идентификатор кодека : A_DTS
Продолжительность : 1 ч. 37 м.
Вид битрейта : Переменный
Битрейт : Неизвестно / 1509 Кбит/сек
Каналы : 6 каналов
Расположение каналов : Front: L C R, Side: L R, LFE
Частота : 48,0 КГц
Битовая глубина : 16 бит
Метод сжатия : Без потерь / Lossy
Язык : Chinese
Default : Нет
Forced : Нет
Текст
Идентификатор : 4
Формат : PGS
Режим смешивания : zlib
Идентификатор кодека : S_HDMV/PGS
Идентификатор кодека/Информация : The same subtitle format used on BDs/HD-DVDs
Язык : German
Default : Нет
Forced : Нет
Скриншот c названием фильма Comparison
[url=http://***/forum/viewtopic.php?t=4461391]http://***/forum/viewtopic.php?t=4461391[/url]
http://screenshotcomparison.com/comparison/109112/picture:7
Скриншоты
Скачать

Скачать торрент! Немного кунг-фу / Кое-что из кунг-фу / Кунфуист недоумок / Half a Loaf of Kung Fu / Karate Bomber (Чен Чи-Хва / Chen Chi-Hwa) [1978, Гонконг, Тайвань, боевик, боевые искусства, BDRip] MVO (ДТВ)

Как скачивать? · Что такое торрент? · Рейтинг и ограничения

Сайт не распространяет и не хранит электронные версии произведений, а лишь предоставляет доступ к создаваемому пользователями каталогу ссылок на торрент-файлы, которые содержат только списки хеш-сумм

[Профиль] [ЛС]
Показать сообщения:    
Ответить на тему

Текущее время: Сегодня 20:02

Часовой пояс: GMT + 4



Вы не можете начинать темы
Вы не можете отвечать на сообщения
Вы не можете редактировать свои сообщения
Вы не можете удалять свои сообщения
Вы не можете голосовать в опросах
Вы не можете прикреплять файлы к сообщениям
Вы не можете скачивать файлы