Принц / Prince (Лекх Тандон / Lekh Tandon) [1969, Индия, Мелодрама, DVDRip] VO (Nastia) + Sub Rus (larisa k)

Ответить на тему
 
Автор Сообщение

user ®

Стаж: 12 лет

Сообщений: 15092

Пост Пост: #1 от 14-Янв-2015 02:39

[Цитировать]

Принц / Prince--
Страна: Индия
Жанр: Мелодрама
Год выпуска: 1969
Продолжительность: 02:36:55
Перевод: Одноголосый, закадровый
Перевод субтитров: larisa_k
Озвучка: Nastia
Cубтитры: Русские (на песни)
Оригинальная аудиодорожка: хинди--Режиссер: Лекх Тандон / Lekh Tandon--В ролях: Шaмми Капур, Виджаянтимала, Аджит, Лина Читнис, Раджендра Натх, Хелен, Парвин Чоудхари, Судхир, Сундер, Рашид Кхан, Д.К.Сапру, Улхас, Лила Мишра, Давид Абрахам, Рандхир--Описание: Принц Шамшер Сингх, единственный сын махараджи небольшого княжества, вырос безответственным и слабохарактерным. Он стал пьяницей и гордецом. Однажды один святой отшельник смог указать принцу правильный путь, путь спасения его погибающей души. Принц уходит из дворца и устраивает аварию что бы все сочли его погибшим. Сам же он начинает новую жизнь. Но возможно ли полностью порвать с прошлым?..--Благодарность:
larisa_k, за перевод субтитров и за предоставленные материалы
Nastia, за озвучку фильма
kasmevaade, за DVD9-Рип и сведение звука: pca1962--Автор релиза:
Релиз-группа:
Сэмпл: http://multi-up.com/1026302
Качество видео: DVDRip
Формат видео: AVI
Видео: XviD, 640x480, 23.97 fps, 1536 kbps
Аудио: AC3, 48 kHz, 2.0 (stereo), 192 kbps (русский)
Аудио 2: AC3, 48 kHz, 2.0 (stereo), 192 kbps (хинди)
Формат субтитров: softsub (SRT)-
-
MediaInfo
General
Complete name : Princ.1969.DVDRip.XviD.pca1962.avi
Format : AVI
Format/Info : Audio Video Interleave
Format profile : OpenDML
File size : 2.12 GiB
Duration : 2h 36mn
Overall bit rate : 1 938 Kbps
Movie name : Princ.1969
Director : mixing audio rus-pca1962
Genre : Melodrama
Writing application : VirtualDubMod 1.5.10.2 (build 2540/release)
Original source form/Name : Movie
Copyright : pca1962
Comment : subtitle translation-larisa_k
Video
ID : 0
Format : MPEG-4 Visual
Format profile : Advanced Simple@L5
Format settings, BVOP : 1
Format settings, QPel : No
Format settings, GMC : No warppoints
Format settings, Matrix : Default (H.263)
Codec ID : XVID
Codec ID/Hint : XviD
Duration : 2h 36mn
Bit rate : 1536 Kbps
Width : 640 pixels
Height : 480 pixels
Display aspect ratio : 4:3
Frame rate : 23.976 fps
Color space : YUV
Chroma subsampling : 4:2:0
Bit depth : 8 bits
Scan type : Progressive
Compression mode : Lossy
Bits/(Pixel*Frame) : 0.209
Stream size : 1.68 GiB (79%)
Writing library : XviD 73
Audio #1
ID : 1
Format : AC-3
Format/Info : Audio Coding 3
Mode extension : CM (complete main)
Format settings, Endianness : Big
Codec ID : 2000
Duration : 2h 36mn
Bit rate mode : Constant
Bit rate : 192 Kbps
Channel count : 2 channels
Channel positions : Front: L R
Sampling rate : 48.0 KHz
Bit depth : 16 bits
Compression mode : Lossy
Stream size : 216 MiB (10%)
Alignment : Split accross interleaves
Interleave, duration : 42 ms (1.00 video frame)
Interleave, preload duration : 500 ms
Audio #2
ID : 2
Format : AC-3
Format/Info : Audio Coding 3
Mode extension : CM (complete main)
Format settings, Endianness : Big
Codec ID : 2000
Duration : 2h 36mn
Bit rate mode : Constant
Bit rate : 192 Kbps
Channel count : 2 channels
Channel positions : Front: L R
Sampling rate : 48.0 KHz
Bit depth : 16 bits
Compression mode : Lossy
Stream size : 216 MiB (10%)
Alignment : Split accross interleaves
Interleave, duration : 42 ms (1.00 video frame)
Interleave, preload duration : 500 ms

-
-Скриншот c названием фильма Скриншоты
Скачать

Скачать торрент! Принц / Prince (Лекх Тандон / Lekh Tandon) [1969, Индия, Мелодрама, DVDRip] VO (Nastia) + Sub Rus (larisa k)

Как скачивать? · Что такое торрент? · Рейтинг и ограничения

Сайт не распространяет и не хранит электронные версии произведений, а лишь предоставляет доступ к создаваемому пользователями каталогу ссылок на торрент-файлы, которые содержат только списки хеш-сумм

[Профиль] [ЛС]
Показать сообщения:    
Ответить на тему

Текущее время: Сегодня 05:44

Часовой пояс: GMT + 4



Вы не можете начинать темы
Вы не можете отвечать на сообщения
Вы не можете редактировать свои сообщения
Вы не можете удалять свои сообщения
Вы не можете голосовать в опросах
Вы не можете прикреплять файлы к сообщениям
Вы не можете скачивать файлы