Проклятие Аннабель / Annabelle (Джон Р. Леонетти / John R. Leonetti) [2014, США, ужасы, BDRip 720p] Dub (iTunes) + Original Eng + Sub Rus

Ответить на тему
 
Автор Сообщение

user ®

Стаж: 7 лет 7 месяцев

Сообщений: 20008

Пост Пост: #1 от 14-Янв-2015 02:39

[Цитировать]

Проклятие Аннабель / Annabelle
Страна: США
Жанр: ужасы
Год выпуска: 2014
Продолжительность: 01:38:39
Перевод: Профессиональный (дублированый) [iTunes]
Оригинальная аудиодорожка: английская
Cубтитры: русские (*srt)
Режиссер: Джон Р. Леонетти / John R. Leonetti
В ролях: Аннабелль Уоллис, Уорд Хортон, Элфри Вудард, Тони Амендола, Эрик Ладин, Керри О’Мэлли, Брайан Хау, Ивар Броггер, Джофф Уэнер, Гэбриел Бейтман
Описание:Джон находит идеальный подарок для своей жены — это редкая старинная кукла в белом свадебном платье. Но восторг от подарка продлился не долго. Однажды ночью в их дом вторгаются члены сатанинского культа…

Качество: BDRip 720p
Контейнер: AVC
Видео: MPEG-4, 1280x536, 4819 kbps, 23.976 кадр/с
Аудио 1: 48 kHz, AC3 Dolby Digital, 3/2 (L,C,R,l,r) + LFE ch, ~384 kbps |Rus

Аудио 2: DTS; 1510Kbps; CBR; 6 ch; 48 kHz; 24 bit |Eng

MI
Общее
Уникальный идентификатор : 251241375347234225826545492289576921887 (0xBD03542C90F65A628DFA83ED093A6B1F)
Полное имя : C:\Users\Пользователь\Downloads\Annabelle.2014.D.BDRip.720p.mkv
Формат : Matroska
Версия формата : Version 4 / Version 2
Размер файла : 4,63 Гбайт
Продолжительность : 1 ч. 38 м.
Общий поток : 6713 Кбит/сек
Дата кодирования : UTC 2015-01-12 06:39:56
Программа кодирования : mkvmerge v7.5.0 ('Glass Culture') 32bit built on Jan 4 2015 16:37:25
Библиотека кодирования : libebml v1.3.1 + libmatroska v1.4.2
_STATISTICS_WRITING_APP : mkvmerge v7.5.0 ('Glass Culture') 32bit built on Jan 4 2015 16:37:25
_STATISTICS_WRITING_DATE_UTC : 2015-01-12 06:39:56
_STATISTICS_TAGS : BPS DURATION NUMBER_OF_FRAMES NUMBER_OF_BYTES
DURATION : 01:33:37.058000000
NUMBER_OF_FRAMES : 928
NUMBER_OF_BYTES : 46491
Видео
Идентификатор : 1
Формат : AVC
Формат/Информация : Advanced Video Codec
Профиль формата : High@L4.1
Параметр CABAC формата : Да
Параметр ReFrames формата : 5 кадров
Идентификатор кодека : V_MPEG4/ISO/AVC
Продолжительность : 1 ч. 38 м.
Битрейт : 4819 Кбит/сек
Ширина : 1280 пикселей
Высота : 536 пикселей
Соотношение сторон : 2,40:1
Режим частоты кадров : Постоянный
Частота кадров : 23,976 кадра/сек
Цветовое пространство : YUV
Субдискретизация насыщенности : 4:2:0
Битовая глубина : 8 бит
Тип развёртки : Прогрессивная
Бит/(Пиксели*Кадры) : 0.293
Размер потока : 3,23 Гбайт (70%)
Библиотека кодирования : x264 core 144 r2525 40bb568
Настройки программы : cabac=1 / ref=5 / deblock=1:0:0 / analyse=0x3:0x133 / me=umh / subme=7 / psy=1 / psy_rd=1.00:0.00 / mixed_ref=1 / me_range=16 / chroma_me=1 / trellis=1 / 8x8dct=1 / cqm=0 / deadzone=21,11 / fast_pskip=0 / chroma_qp_offset=-2 / threads=18 / lookahead_threads=3 / sliced_threads=0 / nr=0 / decimate=1 / interlaced=0 / bluray_compat=0 / constrained_intra=0 / bframes=3 / b_pyramid=2 / b_adapt=1 / b_bias=0 / direct=1 / weightb=1 / open_gop=0 / weightp=2 / keyint=250 / keyint_min=23 / scenecut=40 / intra_refresh=0 / rc_lookahead=40 / rc=2pass / mbtree=1 / bitrate=4819 / ratetol=1.0 / qcomp=0.60 / qpmin=0 / qpmax=69 / qpstep=4 / cplxblur=20.0 / qblur=0.5 / ip_ratio=1.40 / aq=1:1.00
Язык : English
Default : Да
Forced : Нет
_STATISTICS_WRITING_APP : mkvmerge v7.5.0 ('Glass Culture') 32bit built on Jan 4 2015 16:37:25
_STATISTICS_WRITING_DATE_UTC : 2015-01-12 06:39:56
_STATISTICS_TAGS : BPS DURATION NUMBER_OF_FRAMES NUMBER_OF_BYTES
DURATION : 01:38:48.057000000
NUMBER_OF_FRAMES : 142131
NUMBER_OF_BYTES : 3569941602
Аудио #1
Идентификатор : 2
Формат : AC-3
Формат/Информация : Audio Coding 3
Расширение режима : CM (complete main)
Параметр Endianness формата : Big
Идентификатор кодека : A_AC3
Продолжительность : 1 ч. 38 м.
Вид битрейта : Постоянный
Битрейт : 384 Кбит/сек
Каналы : 6 каналов
Расположение каналов : Front: L C R, Side: L R, LFE
Частота : 48,0 КГц
Битовая глубина : 16 бит
Метод сжатия : С потерями
Размер потока : 271 Мбайт (6%)
Default : Да
Forced : Да
Аудио #2
Идентификатор : 3
Формат : DTS
Формат/Информация : Digital Theater Systems
Режим : 16
Параметр Endianness формата : Big
Идентификатор кодека : A_DTS
Продолжительность : 1 ч. 38 м.
Вид битрейта : Постоянный
Битрейт : 1509 Кбит/сек
Каналы : 6 каналов
Расположение каналов : Front: L C R, Side: L R, LFE
Частота : 48,0 КГц
Битовая глубина : 24 бит
Метод сжатия : С потерями
Размер потока : 1,04 Гбайт (22%)
Язык : English
Default : Нет
Forced : Нет
Текст
Идентификатор : 4
Формат : UTF-8
Идентификатор кодека : S_TEXT/UTF8
Идентификатор кодека/Информация : UTF-8 Plain Text
Default : Да
Forced : Нет
Меню
00:00:00.000 : en:00:00:00.000
00:11:58.092 : en:00:11:58.092
00:19:55.152 : en:00:19:55.152
00:30:13.603 : en:00:30:13.603
00:39:09.973 : en:00:39:09.973
00:51:15.489 : en:00:51:15.489
00:59:49.169 : en:00:59:49.169
01:10:05.159 : en:01:10:05.159
01:20:25.279 : en:01:20:25.279
01:31:54.008 : en:01:31:54.008
01:34:42.677 : en:01:34:42.677
Скриншоты
Скачать

Скачать торрент!

Как скачивать? · Что такое торрент? · Рейтинг и ограничения

Сайт не распространяет и не хранит электронные версии произведений, а лишь предоставляет доступ к создаваемому пользователями каталогу ссылок на торрент-файлы, которые содержат только списки хеш-сумм

[Профиль] [ЛС]
Показать сообщения:    
Ответить на тему

Текущее время: Сегодня 01:17

Часовой пояс: GMT + 4



Вы не можете начинать темы
Вы не можете отвечать на сообщения
Вы не можете редактировать свои сообщения
Вы не можете удалять свои сообщения
Вы не можете голосовать в опросах
Вы не можете прикреплять файлы к сообщениям
Вы не можете скачивать файлы