Страсти по Анжелике (Александр Полынников) [1993, Россия, Украина, комедия, эротика, DVDRip-AVC]

Ответить на тему
 
Автор Сообщение

user ®

Стаж: 7 лет 7 месяцев

Сообщений: 20008

Пост Пост: #1 от 14-Янв-2015 02:39

[Цитировать]

Страсти по Анжелике
Страна: Россия, Украина
Жанр: комедия, эротика
Год выпуска: 1993
Продолжительность: 01:05:54
Режиссёр: Александр Полынников
В ролях: Анна Самохина, Сергей Твердохлебов, Анатолий Равикович, Сергей Лосев, Александр Лыков, Андрей Градов, Андрей Смоляков, Николай Трофимов, Тамара Лебедева, Татьяна Бедова...
Описание: Эта достоверная история произошла в небольшом городке где-то в глубине России. Официантка Анжелика обладает странной особенностью — во время грозы в ней просыпается необузданное сексуальное желание. Многие мужчины предприняли попытки воспользоваться этим «природным явлением»…
Сэмпл: http://multi-up.com/1026338
Качество видео: DVDRip-AVC [url=http://***/forum/viewtopic.php?t=2873395]Исходник[/url]
Формат видео: MKV
Видео: 692x574 (1.286) @ 738x574, 25.000 fps, AVC, ~2130 Kbps, 0.214 bits/pixel
Аудио: 48.0 KHz, AC3, 2 ch, 224 Kbps

Log
avs4x264.exe: -L x264_64.exe --pass 2 --bitrate 2130 --preset medium --ref 16 --deblock -1:-1 --merange 48 --bframes 16 --direct auto --b-adapt 2 --trellis 2 --no-fast-pskip --psy-rd 1.00:0.10 --partitions all --subme 11 --me umh --rc-lookahead 50 --sar 993:931 --stats
raw [info]: 692x574p 993:931 @ 25/1 fps (cfr)
x264 [info]: using SAR=993/931
x264 [info]: using cpu capabilities: MMX2 SSE2Fast LZCNT
x264 [info]: profile High, level 4.0
x264 [info]: frame I:543 Avg QP:23.68 size: 50679
x264 [info]: frame P:17471 Avg QP:26.55 size: 21424
x264 [info]: frame B:80830 Avg QP:29.47 size: 8050
x264 [info]: consecutive B-frames: 0.8% 0.9% 3.1% 9.1% 15.3% 37.9% 17.1% 9.6% 3.4% 0.8% 0.2% 1.7% 0.0% 0.0% 0.0% 0.0% 0.0%
x264 [info]: mb I I16..4: 1.8% 91.4% 6.8%
x264 [info]: mb P I16..4: 0.6% 14.1% 1.5% P16..4: 36.7% 36.3% 9.4% 0.4% 0.0% skip: 0.9%
x264 [info]: mb B I16..4: 0.1% 4.3% 0.3% B16..8: 38.6% 15.6% 2.1% direct:10.2% skip:28.6% L0:46.1% L1:45.5% BI: 8.4%
x264 [info]: 8x8 transform intra:89.5% inter:78.3%
x264 [info]: direct mvs spatial:99.5% temporal:0.5%
x264 [info]: coded y,uvDC,uvAC intra: 90.9% 50.8% 14.8% inter: 33.8% 18.4% 0.6%
x264 [info]: i16 v,h,dc,p: 46% 16% 4% 34%
x264 [info]: i8 v,h,dc,ddl,ddr,vr,hd,vl,hu: 9% 4% 4% 14% 16% 18% 12% 14% 8%
x264 [info]: i4 v,h,dc,ddl,ddr,vr,hd,vl,hu: 13% 45% 3% 4% 7% 10% 6% 7% 6%
x264 [info]: i8c dc,h,v,p: 31% 32% 22% 15%
x264 [info]: Weighted P-Frames: Y:36.3% UV:14.2%
x264 [info]: ref P L0: 31.3% 10.2% 15.7% 9.3% 7.1% 5.9% 4.6% 2.6% 2.3% 2.1% 1.9% 1.7% 1.5% 1.4% 1.3% 1.0%
x264 [info]: ref B L0: 68.0% 13.6% 5.4% 3.0% 2.1% 1.9% 1.4% 0.9% 0.7% 0.7% 0.6% 0.6% 0.5% 0.3% 0.1%
x264 [info]: ref B L1: 92.5% 7.5%
x264 [info]: kb/s:2129.57
x264 [total]: encoded 98844 frames, 5.33 fps, 2129.57 kb/s
Сравнение с исходником MediaInfo
General
Unique ID : 192585437652783398710989316120421561078 (0x90E29B2ADDD64AC3AF377E4F036372F6)
Complete name : C:\Страсти по Анжелике.mkv
Format : Matroska
Format version : Version 4 / Version 2
File size : 1.08 GiB
Duration : 1h 5mn
Overall bit rate : 2 355 Kbps
Encoded date : UTC 2015-01-13 11:48:38
Writing application : mkvmerge v7.5.0 ('Glass Culture') 64bit built on Jan 4 2015 16:48:44
Writing library : libebml v1.3.1 + libmatroska v1.4.2
DURATION : 01:05:53.600000000
NUMBER_OF_FRAMES : 123550
NUMBER_OF_BYTES : 110700800
_STATISTICS_WRITING_APP : mkvmerge v7.5.0 ('Glass Culture') 64bit built on Jan 4 2015 16:48:44
_STATISTICS_WRITING_DATE_UT : 2015-01-13 11:48:38
_STATISTICS_TAGS : BPS DURATION NUMBER_OF_FRAMES NUMBER_OF_BYTES
Video
ID : 1
Format : AVC
Format/Info : Advanced Video Codec
Format profile : High@L4.0
Format settings, CABAC : Yes
Format settings, ReFrames : 16 frames
Codec ID : V_MPEG4/ISO/AVC
Duration : 1h 5mn
Bit rate : 2 130 Kbps
Width : 692 pixels
Height : 574 pixels
Display aspect ratio : 1.286
Frame rate mode : Constant
Frame rate : 25.000 fps
Color space : YUV
Chroma subsampling : 4:2:0
Bit depth : 8 bits
Scan type : Progressive
Bits/(Pixel*Frame) : 0.214
Stream size : 982 MiB (88%)
Writing library : x264 core 142 r2479 dd79a61
Encoding settings : cabac=1 / ref=16 / deblock=1:-1:-1 / analyse=0x3:0x133 / me=umh / subme=11 / psy=1 / psy_rd=1.00:0.10 / mixed_ref=1 / me_range=48 / chroma_me=1 / trellis=2 / 8x8dct=1 / cqm=0 / deadzone=21,11 / fast_pskip=0 / chroma_qp_offset=-3 / threads=6 / lookahead_threads=1 / sliced_threads=0 / nr=0 / decimate=1 / interlaced=0 / bluray_compat=0 / constrained_intra=0 / bframes=16 / b_pyramid=2 / b_adapt=2 / b_bias=0 / direct=3 / weightb=1 / open_gop=0 / weightp=2 / keyint=250 / keyint_min=25 / scenecut=40 / intra_refresh=0 / rc_lookahead=50 / rc=2pass / mbtree=1 / bitrate=2130 / ratetol=1.0 / qcomp=0.60 / qpmin=0 / qpmax=69 / qpstep=4 / cplxblur=20.0 / qblur=0.5 / ip_ratio=1.40 / aq=1:1.00
Default : Yes
Forced : No
Audio
ID : 2
Format : AC-3
Format/Info : Audio Coding 3
Mode extension : CM (complete main)
Format settings, Endianness : Big
Codec ID : A_AC3
Duration : 1h 5mn
Bit rate mode : Constant
Bit rate : 224 Kbps
Channel(s) : 2 channels
Channel positions : Front: L R
Sampling rate : 48.0 KHz
Bit depth : 16 bits
Compression mode : Lossy
Stream size : 106 MiB (10%)
Language : Russian
Default : Yes
Forced : No
Menu
00:00:00.000 : :Chapter 01
00:00:08.200 : :Chapter 02
00:11:04.080 : :Chapter 03
00:19:03.160 : :Chapter 04
00:28:22.200 : :Chapter 05
00:37:50.760 : :Chapter 06
00:51:51.760 : :Chapter 07
Скриншоты
Скачать

Скачать торрент!

Как скачивать? · Что такое торрент? · Рейтинг и ограничения

Сайт не распространяет и не хранит электронные версии произведений, а лишь предоставляет доступ к создаваемому пользователями каталогу ссылок на торрент-файлы, которые содержат только списки хеш-сумм

[Профиль] [ЛС]
Показать сообщения:    
Ответить на тему

Текущее время: Сегодня 16:27

Часовой пояс: GMT + 4



Вы не можете начинать темы
Вы не можете отвечать на сообщения
Вы не можете редактировать свои сообщения
Вы не можете удалять свои сообщения
Вы не можете голосовать в опросах
Вы не можете прикреплять файлы к сообщениям
Вы не можете скачивать файлы