Дальше живите сами / This Is Where I Leave You (Шон Леви / Shawn Levy) [2014, США , Драма, комедия, BDRip-AVC] MVO + Sub Rus + Original Eng

Ответить на тему
 
Автор Сообщение

user ®

Стаж: 7 лет 7 месяцев

Сообщений: 20008

Пост Пост: #1 от 13-Янв-2015 09:57

[Цитировать]

Дальше живите сами / This Is Where I Leave You
«Welcome Home. Get Uncomfortable»
- Страна: США / Warner Bros. Pictures, 21 Laps Entertainment, Spring Creek Productions
Жанр: Драма, комедия
Год выпуска: 2014
Продолжительность: 01:43:19
Перевод: Профессиональный (многоголосый закадровый) [лицензия R5]
Cубтитры: Русские, английские (Full + SDH + SDH-Colored)
Оригинальная аудиодорожка: Английский
Навигация по главам: Есть-Режиссер: Шон Леви / Shawn Levy-В ролях: Джейсон Бейтман, Тина Фей, Адам Драйвер, Роуз Бирн, Кори Столл, Кэтрин Хан, Конни Бриттон, Тимоти Олифант, Дэкс Шепард, Джейн Фонда-Описание: Еврейская семья, которая не особо привыкла соблюдать традиции своей веры, вынуждена выполнить последнее желание своего отца — им нужно будет провести вместе период траура, целую неделю, и решить свои проблемы.-| IMDB | КиноПоиск | Сэмпл |-Бюджет: $19 800 000
Сборы в США: $34 296 320
Премьера (мир): 7 сентября 2014,
Релиз на DVD: 11 декабря 2014, «CP Дистрибуция»-Качество видео: BDRip-AVC (Исходник: HDCLUB /Blu-ray Remux /1080p)
Формат видео: MKV
Видео: MPEG4 Video (H264), 1100x456 (2,40:1), 23,976 fps, 2189 kbps, 0.182 bit/pixel
Аудио: 48 kHz, AC3 Dolby Digital, 3/2 (L,C,R,l,r) + LFE ch, 384.00 kbps | RUS | MVO
Аудио 2: 48 kHz, AC3 Dolby Digital, 3/2 (L,C,R,l,r) + LFE ch, 448.00 kbps | ENG | ORIGINAL-

Релиз группы: HELLYWOOD
Автор рипа: potroks
-MediaInfo
General
Unique ID : 216032166469689563804325642809373193591 (0xA28648265EC375A59528389411497577)
Complete name : D:\FILMS\Dal'she.Zhyvite.Sami.2014.DUAL.BDRip.x264.-HELLYWOOD.mkv
Format : Matroska
Format version : Version 4 / Version 2
File size : 2.18 GiB
Duration : 1h 43mn
Overall bit rate : 3 022 Kbps
Movie name : This Is Where I Leave You (2014) - HELLYWOOD
Encoded date : UTC 2015-01-08 12:08:45
Writing application : mkvmerge v5.9.0 ('On The Loose') built on Dec 15 2012 16:39:58
Writing library : libebml v1.3.0 + libmatroska v1.4.0
Video
ID : 1
Format : AVC
Format/Info : Advanced Video Codec
Format profile : High@L4.1
Format settings, CABAC : Yes
Format settings, ReFrames : 10 frames
Codec ID : V_MPEG4/ISO/AVC
Duration : 1h 43mn
Bit rate : 2 189 Kbps
Width : 1 100 pixels
Height : 456 pixels
Display aspect ratio : 2.40:1
Frame rate mode : Constant
Frame rate : 23.976 fps
Color space : YUV
Chroma subsampling : 4:2:0
Bit depth : 8 bits
Scan type : Progressive
Bits/(Pixel*Frame) : 0.182
Stream size : 1.54 GiB (70%)
Title : potroks
Writing library : x264 core 130 r2273 b3065e6
Encoding settings : cabac=1 / ref=10 / deblock=1:-2:-2 / analyse=0x3:0x133 / me=umh / subme=11 / psy=1 / psy_rd=0.99:0.02 / mixed_ref=1 / me_range=48 / chroma_me=1 / trellis=2 / 8x8dct=1 / cqm=0 / deadzone=21,11 / fast_pskip=0 / chroma_qp_offset=-3 / threads=9 / lookahead_threads=7 / sliced_threads=0 / nr=0 / decimate=0 / interlaced=0 / bluray_compat=0 / constrained_intra=0 / bframes=11 / b_pyramid=2 / b_adapt=2 / b_bias=0 / direct=3 / weightb=1 / open_gop=0 / weightp=2 / keyint=250 / keyint_min=23 / scenecut=40 / intra_refresh=0 / rc_lookahead=60 / rc=2pass / mbtree=0 / bitrate=2189 / ratetol=1.0 / qcomp=0.70 / qpmin=0 / qpmax=69 / qpstep=4 / cplxblur=20.0 / qblur=0.5 / vbv_maxrate=50000 / vbv_bufsize=62500 / nal_hrd=none / ip_ratio=1.35 / pb_ratio=1.25 / aq=1:0.80
Language : English
Default : Yes
Forced : No
Audio #1
ID : 2
Format : AC-3
Format/Info : Audio Coding 3
Mode extension : CM (complete main)
Format settings, Endianness : Big
Codec ID : A_AC3
Duration : 1h 43mn
Bit rate mode : Constant
Bit rate : 384 Kbps
Channel(s) : 6 channels
Channel positions : Front: L C R, Side: L R, LFE
Sampling rate : 48.0 KHz
Bit depth : 16 bits
Compression mode : Lossy
Stream size : 284 MiB (13%)
Title : MVO | DD 5.1 @ 384 kbps - R5
Language : Russian
Default : Yes
Forced : No
Audio #2
ID : 3
Format : AC-3
Format/Info : Audio Coding 3
Mode extension : CM (complete main)
Format settings, Endianness : Big
Codec ID : A_AC3
Duration : 1h 43mn
Bit rate mode : Constant
Bit rate : 448 Kbps
Channel(s) : 6 channels
Channel positions : Front: L C R, Side: L R, LFE
Sampling rate : 48.0 KHz
Bit depth : 16 bits
Compression mode : Lossy
Stream size : 331 MiB (15%)
Title : Original | DD 5.1 @ 448 kbps
Language : English
Default : No
Forced : No
Text #1
ID : 4
Format : UTF-8
Codec ID : S_TEXT/UTF8
Codec ID/Info : UTF-8 Plain Text
Language : Russian
Default : No
Forced : No
Text #2
ID : 5
Format : UTF-8
Codec ID : S_TEXT/UTF8
Codec ID/Info : UTF-8 Plain Text
Title : Full
Language : English
Default : No
Forced : No
Text #3
ID : 6
Format : UTF-8
Codec ID : S_TEXT/UTF8
Codec ID/Info : UTF-8 Plain Text
Title : SDH
Language : English
Default : No
Forced : No
Text #4
ID : 7
Format : UTF-8
Codec ID : S_TEXT/UTF8
Codec ID/Info : UTF-8 Plain Text
Title : SDH-Colored
Language : English
Default : No
Forced : No
Menu
00:00:00.000 : en:00:00:00.000
00:09:09.716 : en:00:09:09.716
00:21:54.605 : en:00:21:54.605
00:30:50.348 : en:00:30:50.348
00:39:28.866 : en:00:39:28.866
00:50:38.244 : en:00:50:38.244
01:01:14.254 : en:01:01:14.254
01:09:18.321 : en:01:09:18.321
01:20:55.434 : en:01:20:55.434
01:29:12.514 : en:01:29:12.514
01:40:07.335 : en:01:40:07.335
Скриншот c названием фильма Скриншоты
Скачать

Скачать торрент!

Как скачивать? · Что такое торрент? · Рейтинг и ограничения

Сайт не распространяет и не хранит электронные версии произведений, а лишь предоставляет доступ к создаваемому пользователями каталогу ссылок на торрент-файлы, которые содержат только списки хеш-сумм

[Профиль] [ЛС]
Показать сообщения:    
Ответить на тему

Текущее время: Сегодня 18:03

Часовой пояс: GMT + 4



Вы не можете начинать темы
Вы не можете отвечать на сообщения
Вы не можете редактировать свои сообщения
Вы не можете удалять свои сообщения
Вы не можете голосовать в опросах
Вы не можете прикреплять файлы к сообщениям
Вы не можете скачивать файлы