Палач / Jallaad (Т.Л.В. Прасад / T.L.V. Prasad) [1995, Индия, Драма, боевик, SATRip] MVO (Zee Tv)

Ответить на тему
 
Автор Сообщение

user ®

Стаж: 12 лет

Сообщений: 15092

Пост Пост: #1 от 13-Янв-2015 03:45

[Цитировать]

Палач / Jallaad
Страна: Индия
Жанр: Драма, боевик
Год выпуска: 1995
Продолжительность: 02:34:55
Перевод: Профессиональный (многоголосый закадровый) Zee Tv
Cубтитры: нет
Режиссер: Т.Л.В. Прасад / T.L.V. Prasad
В ролях: Митхун Чакраборти, Мадху, Рамбха, Пунит Иссар, Кадер Кхан, Тедж Сапру, Викас Ананд, Сулабха Эрийа, Моушми Чаттерджи, Прем Чопра, Автар Гилл, Шакти Капур
Описание: Тщеславный авантюрист Амавас путем хитроумных комбинаций побеждает на выборах и становиться главой администрации. Для того, чтобы удержаться на вершине власти, он встает на преступный путь. Его сын Кранти, которого воспитывали бабушка и дедушка, узнав о преступлениях отца и о том, что из-за него погибла мать Кранти, решает отомстить...
Доп. информация: Релиз: Кинозал.ТВ
Запись фильма, риппер, удаление рекламы: oktober (Спасибо!)
Сэмпл: http://multi-up.com/1026149
Качество видео: SATRip
Формат видео: AVI
Видео: XviD MPEG-4, 640x336 (1.90:1), 25 fps, 1499 kbps avg
Аудио: AC3 Dolby Digital, 48 kHz, 2/0 (L,R) ch, 192 kbps
MediaInfo
General
Complete name : F:\Palach.1995.XviD.SATRip.Oktober.avi
Format : AVI
Format/Info : Audio Video Interleave
File size : 1.84 GiB
Duration : 2h 34mn
Overall bit rate : 1 702 Kbps
Writing application : VirtualDubMod 1.5.10.2 (build 2540/release)
Writing library : VirtualDubMod build 2540/release
Video
ID : 0
Format : MPEG-4 Visual
Format profile : Simple@L1
Format settings, BVOP : No
Format settings, QPel : No
Format settings, GMC : No warppoints
Format settings, Matrix : Default (H.263)
Codec ID : XVID
Codec ID/Hint : XviD
Duration : 2h 34mn
Bit rate : 1 500 Kbps
Width : 640 pixels
Height : 336 pixels
Display aspect ratio : 1.905
Frame rate : 25.000 fps
Resolution : 24 bits
Colorimetry : 4:2:0
Scan type : Progressive
Bits/(Pixel*Frame) : 0.279
Stream size : 1.62 GiB (88%)
Writing library : Lavc53.33.0
Audio
ID : 1
Format : AC-3
Format/Info : Audio Coding 3
Codec ID : 2000
Duration : 2h 34mn
Bit rate mode : Constant
Bit rate : 192 Kbps
Channel(s) : 2 channels
Channel positions : L R
Sampling rate : 48.0 KHz
Stream size : 213 MiB (11%)
Alignment : Split accross interleaves
Interleave, duration : 40 ms (1.00 video frame)
Interleave, preload duration : 500 ms
Скриншоты
Скачать

Скачать торрент! Палач / Jallaad (Т.Л.В. Прасад / T.L.V. Prasad) [1995, Индия, Драма, боевик, SATRip] MVO (Zee Tv)

Как скачивать? · Что такое торрент? · Рейтинг и ограничения

Сайт не распространяет и не хранит электронные версии произведений, а лишь предоставляет доступ к создаваемому пользователями каталогу ссылок на торрент-файлы, которые содержат только списки хеш-сумм

[Профиль] [ЛС]
Показать сообщения:    
Ответить на тему

Текущее время: Сегодня 17:54

Часовой пояс: GMT + 4



Вы не можете начинать темы
Вы не можете отвечать на сообщения
Вы не можете редактировать свои сообщения
Вы не можете удалять свои сообщения
Вы не можете голосовать в опросах
Вы не можете прикреплять файлы к сообщениям
Вы не можете скачивать файлы