Бей и кричи / Kicking & Screaming (Джесси Дилан / Jesse Dylan) [2005, США, комедия, семейный, спорт, HDTVRip 720p] MVO + Original Eng

Ответить на тему
 
Автор Сообщение

user ®

Стаж: 7 лет 7 месяцев

Сообщений: 20008

Пост Пост: #1 от 13-Янв-2015 03:45

[Цитировать]

Бей и кричи / Kicking & Screaming
Страна: США
Студия: Universal Pictures, Mosaic Media Group
Жанр: комедия, семейный, спорт
Год выпуска: 2005
Продолжительность: 01:30:43
Перевод: Профессиональный (многоголосый закадровый)
Cубтитры: нет
Оригинальная аудиодорожка: английский
Режиссер: Джесси Дилан / Jesse Dylan
В ролях: Уилл Феррелл, Роберт Дювалл, Майк Дитка, Кейт Уолш, Мюзетта Вандер, Дилан МакЛафлин, Джош Хатчерсон, Стивен Энтони Лоуренс, Джереми Бергман, Эллиотт Чо, Эрик Уолкер, Даллас МакКинни (Will Ferrell, Robert Duvall, Mike Ditka, Kate Walsh, Musetta Vander, Dylan McLaughlin, Josh Hutcherson, Steven Anthony Lawrence, Jeremy Bergman, Elliott Cho, Erik Walker, Dallas McKinney)
Описание: Долгие годы Фил Уэстон пытался избавиться от влияния и нравоучений своего деспотичного отца Бака и доказать ему, что он способен сам добиться успеха. Однажды ему доверяют тренировать детскую футбольную команду, в которой к тому же играет его 10-летний сын. Команда уверенно выигрывает матч за матчем. Но вскоре выясняется, что их главных соперников тренирует никто иной как Бак. И тогда победа на чемпионате становится делом чести для каждого из конкурентов...
Доп. информация: Автор рипа - ZED. Добавлена русская дорожка с многоголосым переводом студии "Пифагор", взятая из [url=http://***/forum/viewtopic.php?t=1123655]раздачи S.L.E.V.I.N[/url]. Большое спасибо предоставившим материалы! На протяжении всего фильма присутствует лого телеканала.
Сэмпл
Тип релиза: HDTVRip 720p
Контейнер: MKV
Видео: 1280x720p (16:9), 25 fps, x264, 6281 kbps
Аудио 1: Russian (Dolby AC3, 6 ch) 448 Kbps / 48 000 Hz
Аудио 2: English (Dolby AC3, 6 ch) 448 Kbps / 48 000 Hz
MediaInfo
Уникальный идентификатор : 248971980786795262882706307872451092829 (0xBB4E426235D1F1559E0FEADB68CA615D)
Полное имя : Kicking.and.Screaming.(2005).HDTVRip.720p.x264.RUS.ENG.AC3.mkv
Формат : Matroska
Версия формата : Version 4 / Version 2
Размер файла : 4,55 Гбайт
Продолжительность : 1 ч. 30 м.
Общий поток : 7179 Кбит/сек
Название фильма : Kicking and Screaming (2005) HDTVRip 720p
Дата кодирования : UTC 2015-01-09 16:51:10
Программа кодирования : mkvmerge v7.5.0 ('Glass Culture') 32bit built on Jan 4 2015 16:37:25
Библиотека кодирования : libebml v1.3.1 + libmatroska v1.4.2
_STATISTICS_WRITING_APP : mkvmerge v7.5.0 ('Glass Culture') 32bit built on Jan 4 2015 16:37:25
_STATISTICS_WRITING_DATE_UTC : 2015-01-09 16:51:10
_STATISTICS_TAGS : BPS DURATION NUMBER_OF_FRAMES NUMBER_OF_BYTES
DURATION : 01:30:43.776000000
NUMBER_OF_FRAMES : 170118
NUMBER_OF_BYTES : 304851456
Видео
Идентификатор : 1
Формат : AVC
Формат/Информация : Advanced Video Codec
Профиль формата : High@L4.1
Параметр CABAC формата : Да
Параметр ReFrames формата : 9 кадров
Идентификатор кодека : V_MPEG4/ISO/AVC
Продолжительность : 1 ч. 30 м.
Битрейт : 6281 Кбит/сек
Ширина : 1280 пикселей
Высота : 720 пикселей
Соотношение сторон : 16:9
Режим частоты кадров : Постоянный
Частота кадров : 25,000 кадров/сек
Цветовое пространство : YUV
Субдискретизация насыщенности : 4:2:0
Битовая глубина : 8 бит
Тип развёртки : Прогрессивная
Бит/(Пиксели*Кадры) : 0.273
Размер потока : 3,89 Гбайт (86%)
Библиотека кодирования : x264 core 142 r2431 ac76440
Настройки программы : cabac=1 / ref=9 / deblock=1:-3:-3 / analyse=0x3:0x113 / me=umh / subme=9 / psy=1 / psy_rd=1.10:0.00 / mixed_ref=1 / me_range=32 / chroma_me=1 / trellis=2 / 8x8dct=1 / cqm=0 / deadzone=21,11 / fast_pskip=0 / chroma_qp_offset=-2 / threads=6 / lookahead_threads=1 / sliced_threads=0 / nr=0 / decimate=1 / interlaced=0 / bluray_compat=0 / constrained_intra=0 / bframes=6 / b_pyramid=2 / b_adapt=2 / b_bias=0 / direct=3 / weightb=1 / open_gop=0 / weightp=2 / keyint=250 / keyint_min=24 / scenecut=40 / intra_refresh=0 / rc_lookahead=50 / rc=2pass / mbtree=0 / bitrate=6281 / ratetol=1.0 / qcomp=0.60 / qpmin=10 / qpmax=51 / qpstep=4 / cplxblur=20.0 / qblur=0.5 / vbv_maxrate=62500 / vbv_bufsize=78125 / nal_hrd=none / filler=0 / ip_ratio=1.40 / pb_ratio=1.30 / aq=1:1.00
Язык : English
Default : Да
Forced : Нет
_STATISTICS_WRITING_APP : mkvmerge v7.5.0 ('Glass Culture') 32bit built on Jan 4 2015 16:37:25
_STATISTICS_WRITING_DATE_UTC : 2015-01-09 16:51:10
_STATISTICS_TAGS : BPS DURATION NUMBER_OF_FRAMES NUMBER_OF_BYTES
DURATION : 01:30:43.760000000
NUMBER_OF_FRAMES : 136094
NUMBER_OF_BYTES : 4274225071
Аудио #1
Идентификатор : 2
Формат : AC-3
Формат/Информация : Audio Coding 3
Расширение режима : CM (complete main)
Параметр Endianness формата : Big
Идентификатор кодека : A_AC3
Продолжительность : 1 ч. 30 м.
Вид битрейта : Постоянный
Битрейт : 448 Кбит/сек
Каналы : 6 каналов
Расположение каналов : Front: L C R, Side: L R, LFE
Частота : 48,0 КГц
Битовая глубина : 16 бит
Метод сжатия : С потерями
Размер потока : 291 Мбайт (6%)
Язык : Russian
Default : Да
Forced : Нет
Аудио #2
Идентификатор : 3
Формат : AC-3
Формат/Информация : Audio Coding 3
Расширение режима : CM (complete main)
Параметр Endianness формата : Big
Идентификатор кодека : A_AC3
Продолжительность : 1 ч. 30 м.
Вид битрейта : Постоянный
Битрейт : 448 Кбит/сек
Каналы : 6 каналов
Расположение каналов : Front: L C R, Side: L R, LFE
Частота : 48,0 КГц
Битовая глубина : 16 бит
Метод сжатия : С потерями
Размер потока : 291 Мбайт (6%)
Язык : English
Default : Нет
Forced : Нет
Скриншоты
Скачать

Скачать торрент!

Как скачивать? · Что такое торрент? · Рейтинг и ограничения

Сайт не распространяет и не хранит электронные версии произведений, а лишь предоставляет доступ к создаваемому пользователями каталогу ссылок на торрент-файлы, которые содержат только списки хеш-сумм

[Профиль] [ЛС]
Показать сообщения:    
Ответить на тему

Текущее время: Сегодня 16:33

Часовой пояс: GMT + 4



Вы не можете начинать темы
Вы не можете отвечать на сообщения
Вы не можете редактировать свои сообщения
Вы не можете удалять свои сообщения
Вы не можете голосовать в опросах
Вы не можете прикреплять файлы к сообщениям
Вы не можете скачивать файлы