Без компромиссов / Blitz (Эллиотт Лестер / Elliott Lester) [2011, Великобритания, Франция, США, Триллер, боевик, криминал, BDRip 720p] Dub + Sub Eng + Original Eng

Ответить на тему
 
Автор Сообщение

user ®

Стаж: 7 лет 7 месяцев

Сообщений: 20008

Пост Пост: #1 от 13-Янв-2015 03:45

[Цитировать]

Без компромиссов / Blitz
Страна: Великобритания, Франция, США
Студия: Blitz Films, Lionsgate
Жанр: Триллер, боевик, криминал, экранизация
Год выпуска: 2011
Продолжительность: 01:37:01
Перевод: Профессиональный (дублированный)
Cубтитры: английские
Оригинальная аудиодорожка: английский
Режиссер: Эллиотт Лестер / Elliott Lester
В ролях: Джейсон Стэйтем, Люк Эванс, Эйден Гиллен, Пэдди Консидайн, Зэйв Эштон, Дэвид Моррисси, Рон Донаки, Джозеф Демпси, Марк Райлэнс, Элли Фэйрмэн, Нед Деннехи, Ричард Ридделл, Никки Хенсон, Набил Елухаби, Алекс Ланипекун, Срджан Сорик, Тейлор Джеймс, Стивен Харвуд-Браун, Рис Бомонт, Грегори Финнегэн, Билл Чемпион, Дес Баррон, Люк Баррон, Джек Бенс, Джон Бертон, Майкл Бирч, Ребекка Ив, Риши Гхош, Руперт Холидэй-Эванс, Омар Хосейн, Джули Холт
Описание: Семь или восемь? Не в граммах, а в полицейских!.. Именно этим вопросом задается лондонский маньяк, решивший прославиться. Выбрав себе для первых полос таблоидов звучный псевдоним Блиц и вооружившись молотком, Барри Вайс выходит на улицы. И теперь главному герою придется спасать свою шкуру и пытаться остановить сумасшедшего убийцу…
Тип релиза: BDRip 720p
Контейнер: MKV
Видео: MPEG-4 AVC, 5812 Кбит/с, 1280x544 (2.35:1), 24 кадр/с
Аудио: Русский (AC3, 6 ch, 448 Кбит/с)
Аудио 2: Aнглийский (AC3, 6 ch, 640 Кбит/с)
IMDb: 6.20 (57 757)
Возрастные ограничения: зрителям, достигшим 18 лет
Рейтинг MPAA: Лицам до 17 лет обязательно присутствие взрослого
Сэмпл
MediaInfo
General
Unique ID : 184084668650388374695856598452705227254 (0x8A7D6AE594E962D791545563DAE0F1F6)
Complete name : D:\Video\Movies\Bez.kompromissov.2011.x264.BDRip.720p.mkv
Format : Matroska
Format version : Version 2
File size : 4.68 GiB
Duration : 1h 37mn
Overall bit rate : 6 902 Kbps
Encoded date : UTC 2011-08-11 08:20:13
Writing application : mkvmerge v4.9.1 ('Ich will') сборка от Jul 11 2011 23:53:15
Writing library : libebml v1.2.1 + libmatroska v1.1.1
Video
ID : 1
Format : AVC
Format/Info : Advanced Video Codec
Format profile : High@L4.1
Format settings, CABAC : Yes
Format settings, ReFrames : 12 frames
Codec ID : V_MPEG4/ISO/AVC
Duration : 1h 37mn
Bit rate : 5 812 Kbps
Width : 1 280 pixels
Height : 544 pixels
Display aspect ratio : 2.35:1
Frame rate mode : Constant
Frame rate : 24.000 fps
Color space : YUV
Chroma subsampling : 4:2:0
Bit depth : 8 bits
Scan type : Progressive
Bits/(Pixel*Frame) : 0.348
Stream size : 3.85 GiB (82%)
Writing library : x264 core 116 r2037 f8ebd4a
Encoding settings : cabac=1 / ref=12 / deblock=1:-3:-3 / analyse=0x3:0x133 / me=umh / subme=10 / psy=1 / psy_rd=1.05:0.10 / mixed_ref=1 / me_range=32 / chroma_me=1 / trellis=2 / 8x8dct=1 / cqm=0 / deadzone=21,11 / fast_pskip=1 / chroma_qp_offset=-3 / threads=12 / sliced_threads=0 / nr=0 / decimate=1 / interlaced=0 / bluray_compat=0 / constrained_intra=0 / bframes=8 / b_pyramid=2 / b_adapt=2 / b_bias=0 / direct=3 / weightb=1 / open_gop=1 / weightp=2 / keyint=250 / keyint_min=24 / scenecut=40 / intra_refresh=0 / rc_lookahead=80 / rc=2pass / mbtree=1 / bitrate=5812 / ratetol=1.0 / qcomp=0.60 / qpmin=10 / qpmax=69 / qpstep=4 / cplxblur=20.0 / qblur=0.5 / ip_ratio=1.40 / aq=1:0.80
Default : No
Forced : No
Audio #1
ID : 2
Format : AC-3
Format/Info : Audio Coding 3
Mode extension : CM (complete main)
Format settings, Endianness : Big
Codec ID : A_AC3
Duration : 1h 37mn
Bit rate mode : Constant
Bit rate : 448 Kbps
Channel(s) : 6 channels
Channel positions : Front: L C R, Side: L R, LFE
Sampling rate : 48.0 KHz
Bit depth : 16 bits
Compression mode : Lossy
Stream size : 311 MiB (6%)
Title : Дублированный
Language : Russian
Default : Yes
Forced : Yes
Audio #2
ID : 3
Format : AC-3
Format/Info : Audio Coding 3
Mode extension : CM (complete main)
Format settings, Endianness : Big
Codec ID : A_AC3
Duration : 1h 37mn
Bit rate mode : Constant
Bit rate : 640 Kbps
Channel(s) : 6 channels
Channel positions : Front: L C R, Side: L R, LFE
Sampling rate : 48.0 KHz
Bit depth : 16 bits
Compression mode : Lossy
Stream size : 444 MiB (9%)
Language : English
Default : No
Forced : No
Text
ID : 4
Format : UTF-8
Codec ID : S_TEXT/UTF8
Codec ID/Info : UTF-8 Plain Text
Language : English
Default : No
Forced : No
Menu
00:00:00.000 : en:00:00:00.000
00:06:38.500 : en:00:06:38.500
00:15:10.417 : en:00:15:10.417
00:23:06.333 : en:00:23:06.333
00:29:14.292 : en:00:29:14.292
00:38:36.417 : en:00:38:36.417
00:45:27.958 : en:00:45:27.958
00:52:15.667 : en:00:52:15.667
01:00:46.583 : en:01:00:46.583
01:08:06.875 : en:01:08:06.875
01:16:12.542 : en:01:16:12.542
01:22:30.958 : en:01:22:30.958
Знаете ли Вы, что...
- Фильм снят по мотивам романа Кена Бруена «Без компромиссов» (Blitz, 2011).
- Кен Бруен, автор книги, по которой снят фильм, сыграл небольшую роль священника на похоронах.
- Во время сцены убийства Блица сержант Брант стреляет из обычного самозарядного пистолета, но в моменте, когда выстрел показывается сбоку, в руке у Бранта можно заметить пистолет револьверного типа с открытой наружностью.
Скриншоты [url=http://***/forum/tracker.php?nm=Blitz%202011%20Elliott%20Lester]Все релизы фильма[/url]
Скачать

Скачать торрент!

Как скачивать? · Что такое торрент? · Рейтинг и ограничения

Сайт не распространяет и не хранит электронные версии произведений, а лишь предоставляет доступ к создаваемому пользователями каталогу ссылок на торрент-файлы, которые содержат только списки хеш-сумм

[Профиль] [ЛС]
Показать сообщения:    
Ответить на тему

Текущее время: Сегодня 05:11

Часовой пояс: GMT + 4



Вы не можете начинать темы
Вы не можете отвечать на сообщения
Вы не можете редактировать свои сообщения
Вы не можете удалять свои сообщения
Вы не можете голосовать в опросах
Вы не можете прикреплять файлы к сообщениям
Вы не можете скачивать файлы