Отчаянный побег / Desperate Escape (Джордж Менделюк / George Mendeluk) [2009, Канада, драма, криминал, детектив, HDTV 1080i] MVO

Ответить на тему
 
Автор Сообщение

user ®

Стаж: 7 лет 7 месяцев

Сообщений: 20008

Пост Пост: #1 от 13-Янв-2015 03:45

[Цитировать]

Отчаянный побег / Desperate Escape Страна: Канада
Жанр: драма, криминал, детектив
Год выпуска: 2009
Продолжительность: 01:25:43
Перевод: Профессиональный (многоголосый закадровый)
Cубтитры: нет
Режиссер: Джордж Менделюк / George Mendeluk
В ролях: Элизабет Рём, Майкл Шэнкс, Майкл Райан, Серинда Свон, Донна Ямамото, Франсуаза Робертсон, Уильям МакДональд, Майкл Райан, Тамми Хуи, Майкл Йонсон
Описание: Брук Харрис приходит в себя после двухдневной комы и никак не может ничего о себе вспомнить. Она вынуждена верить Майклу, представившемуся ее женихом. Кроме Майкла, рядом с ней постоянно находится Мелисса, назвавшаяся лучшей подругой Брук.
Несмотря на заботу со стороны Майкла и Мелиссы, Брук не чувствует себя в безопасности. Ее постоянно посещают какие-то непонятные воспоминания. К тому же, ей постоянно кажется, что за ней кто-то наблюдает. С каждым днем у Брук появляется все больше вопросов и сомнений…
[url=http://***/forum/tracker.php?nm=%D0%9E%D1%82%D1%87%D0%B0%D1%8F%D0%BD%D0%BD%D1%8B%D0%B9%20%D0%BF%D0%BE%D0%B1%D0%B5%D0%B3]Все раздачи фильма[/url]
Сэмпл: http://rusfolder.com/42718375
Тип релиза: HDTV 1080i
Контейнер: TS
Видео: AVC/H.264, PAL, 1920х1080 (16:9), 25 fps, 7522 Kbps
Аудио: русский, MP-2, 48000 Hz, 192 Кбит/сек, 2 ch
MediaInfo
Общее
Идентификатор : 1 (0x1)
Полное имя : D:\Отчаянный побег.ts
Формат : MPEG-TS
Размер файла : 4,86 Гбайт
Продолжительность : 1 ч. 25 м.
Режим общего битрейта : Переменный
Общий поток : 8117 Кбит/сек
Максимальный общий битрейт : 35,5 Мбит/сек
Видео
Идентификатор : 4113 (0x1011)
Идентификатор меню : 1 (0x1)
Формат : AVC
Формат/Информация : Advanced Video Codec
Профиль формата : Main@L4.0
Параметр CABAC формата : Да
Параметр ReFrames формата : 3 кадра
Параметр GOP формата : M=4, N=32
Идентификатор кодека : 27
Продолжительность : 1 ч. 25 м.
Вид битрейта : Переменный
Битрейт : 7522 Кбит/сек
Максимальный битрейт : 40,0 Мбит/сек
Ширина : 1920 пикселей
Высота : 1080 пикселей
Соотношение сторон : 16:9
Частота кадров : 25,000 кадров/сек
Стандарт вещания : Component
Цветовое пространство : YUV
Субдискретизация насыщенности : 4:2:0
Битовая глубина : 8 бит
Тип развёртки : Чересстрочная
Порядок развёртки : Верхнее поле первое
Бит/(Пиксели*Кадры) : 0.145
Размер потока : 4,50 Гбайт (93%)
Основные цвета : BT.709
Характеристики трансфера : BT.709
Коэффициенты матрицы : BT.709
colour_range : Limited
Аудио
Идентификатор : 4352 (0x1100)
Идентификатор меню : 1 (0x1)
Формат : MPEG Audio
Версия формата : Version 1
Профиль формата : Layer 2
Идентификатор кодека : 4
Продолжительность : 1 ч. 25 м.
Вид битрейта : Постоянный
Битрейт : 192 Кбит/сек
Каналы : 2 канала
Частота : 48,0 КГц
Метод сжатия : С потерями
Размер потока : 118 Мбайт (2%)
Язык : Russian
Скриншоты с названием фильма Скриншоты
Скачать

Скачать торрент!

Как скачивать? · Что такое торрент? · Рейтинг и ограничения

Сайт не распространяет и не хранит электронные версии произведений, а лишь предоставляет доступ к создаваемому пользователями каталогу ссылок на торрент-файлы, которые содержат только списки хеш-сумм

[Профиль] [ЛС]
Показать сообщения:    
Ответить на тему

Текущее время: Сегодня 20:34

Часовой пояс: GMT + 4



Вы не можете начинать темы
Вы не можете отвечать на сообщения
Вы не можете редактировать свои сообщения
Вы не можете удалять свои сообщения
Вы не можете голосовать в опросах
Вы не можете прикреплять файлы к сообщениям
Вы не можете скачивать файлы