Секреты войны / Oorlogsgeheimen (Деннис Ботс / Dennis Bots) [2014, Нидерланды, драма, военный, BDRip 720p] VO + Sub Rus, Eng + Original Dut

Ответить на тему
 
Автор Сообщение

user ®

Стаж: 7 лет 7 месяцев

Сообщений: 20008

Пост Пост: #1 от 13-Янв-2015 03:45

[Цитировать]

Секреты войны / Oorlogsgeheimen
Страна: Нидерланды
Студия: Bijker Productions, KRO и другие
Жанр: драма, военный
Год выпуска: 2014
Продолжительность: 01:35:49
Перевод: Одноголосый закадровый PashaUp
Cубтитры: русские (Алексей Крылов), английские
Оригинальная аудиодорожка: нидерландский
Режиссер: Деннис Ботс / Dennis Bots
В ролях: Маас Бронкхойзен, Йос Брауэрс, Пиппа Аллен, Люк Петерс, Нильс Веркойен, Пин Вестендорп, Эва Дуйвестайн, Аннемари Принс, Стефан де Валле, Марго Дамес
Описание: 1943 год. Туур и Ламберт - лучшие друзья. В родной деревне и ее окрестностях для них нет секретов. Но война совсем близко и грозит изменить их жизнь навсегда. Отец Туура и его старший брат участвуют в Сопротивлении. Отец Ламберта - коллаборационист, а старший брат - член гитлерюгенда. Однажды в деревне появляется новая девочка. Свой секрет она открывает только одному из друзей. Этот выбор разделяет мальчишек и не только ставит под угрозу их дружбу, но и приводит к настоящей беде...

Sample
Тип релиза: BDRip 720p - VietHD
Контейнер: MKV
Видео: MPEG4 AVC Video, H264, 16:9, 1280x536, 23.976 fps, 6800 kbps
Аудио: Russian (AC3, 6 ch, 448 kbps, 16 bits, 48.0 KHz) - VO PashaUp
Аудио 2: Dutch (DTS, 6 ch, 1509 kbps, 16 bits, 48.0 KHz) - оригинал
Формат субтитров: softsub (SRT)

MediaInfo
General
Unique ID : 178536702665135613264731165754103085101 (0x8650EB0E12D0A52BA889F165E87EB82D)
Complete name : K:\Oorlogsgeheimen 2014 BDRip 720p.mkv
Format : Matroska
Format version : Version 4 / Version 2
File size : 5.86 GiB
Duration : 1h 35mn
Overall bit rate : 8 749 Kbps
Encoded date : UTC 2015-01-08 14:28:23
Writing application : mkvmerge v6.1.0 ('Old Devil') built on Mar 2 2013 14:32:37
Writing library : libebml v1.3.0 + libmatroska v1.4.0
Video
ID : 1
Format : AVC
Format/Info : Advanced Video Codec
Format profile : High@L4.1
Format settings, CABAC : Yes
Format settings, ReFrames : 12 frames
Codec ID : V_MPEG4/ISO/AVC
Duration : 1h 35mn
Bit rate : 6 800 Kbps
Width : 1 280 pixels
Height : 536 pixels
Display aspect ratio : 2.40:1
Frame rate mode : Constant
Frame rate : 23.976 fps
Color space : YUV
Chroma subsampling : 4:2:0
Bit depth : 8 bits
Scan type : Progressive
Bits/(Pixel*Frame) : 0.413
Stream size : 4.43 GiB (76%)
Writing library : x264 core 142 r2453 ea0ca51
Encoding settings : cabac=1 / ref=12 / deblock=1:-3:-3 / analyse=0x3:0x133 / me=umh / subme=10 / psy=1 / psy_rd=1.05:0.00 / mixed_ref=1 / me_range=16 / chroma_me=1 / trellis=2 / 8x8dct=1 / cqm=0 / deadzone=21,11 / fast_pskip=0 / chroma_qp_offset=-2 / threads=12 / lookahead_threads=2 / sliced_threads=0 / nr=0 / decimate=0 / interlaced=0 / bluray_compat=0 / constrained_intra=0 / bframes=8 / b_pyramid=2 / b_adapt=2 / b_bias=0 / direct=3 / weightb=1 / open_gop=0 / weightp=2 / keyint=250 / keyint_min=23 / scenecut=40 / intra_refresh=0 / rc=2pass / mbtree=0 / bitrate=6800 / ratetol=1.0 / qcomp=0.65 / qpmin=0 / qpmax=69 / qpstep=4 / cplxblur=20.0 / qblur=0.5 / ip_ratio=1.30 / pb_ratio=1.20 / aq=1:0.80 / zones=0,432,q=10/9692,9736,q=11/11312,12980,b=1.15/14260,14421,q=11/47598,50550,b=1.3/53667,61037,b=1.15/61741,61964,q=11/82527,83362,q=11/98143,98641,q=11/108588,112905,b=1.2/114774,116046,b=1.3/121918,129645,b=1.15/133366,137854,b=0.5
Language : Dutch
Default : Yes
Forced : No
Audio #1
ID : 2
Format : AC-3
Format/Info : Audio Coding 3
Mode extension : CM (complete main)
Format settings, Endianness : Big
Codec ID : A_AC3
Duration : 1h 35mn
Bit rate mode : Constant
Bit rate : 448 Kbps
Channel count : 6 channels
Channel positions : Front: L C R, Side: L R, LFE
Sampling rate : 48.0 KHz
Bit depth : 16 bits
Compression mode : Lossy
Stream size : 307 MiB (5%)
Title : PashaUp
Language : Russian
Default : Yes
Forced : Yes
Audio #2
ID : 3
Format : DTS
Format/Info : Digital Theater Systems
Mode : 16
Format settings, Endianness : Big
Codec ID : A_DTS
Duration : 1h 35mn
Bit rate mode : Constant
Bit rate : 1 509 Kbps
Channel count : 6 channels
Channel positions : Front: L C R, Side: L R, LFE
Sampling rate : 48.0 KHz
Bit depth : 16 bits
Compression mode : Lossy
Stream size : 1.01 GiB (17%)
Language : Dutch
Default : No
Forced : No
Text #1
ID : 4
Format : UTF-8
Codec ID : S_TEXT/UTF8
Codec ID/Info : UTF-8 Plain Text
Language : Russian
Default : No
Forced : No
Text #2
ID : 5
Format : UTF-8
Codec ID : S_TEXT/UTF8
Codec ID/Info : UTF-8 Plain Text
Language : English
Default : No
Forced : No
Menu
00:00:00.000 : en:00:00:00.000
00:07:04.507 : en:00:07:04.507
00:13:42.530 : en:00:13:42.530
00:22:52.871 : en:00:22:52.871
00:33:16.661 : en:00:33:16.661
00:36:07.290 : en:00:36:07.290
00:45:50.373 : en:00:45:50.373
00:52:56.757 : en:00:52:56.757
01:03:58.543 : en:01:03:58.543
01:12:50.032 : en:01:12:50.032
01:19:33.477 : en:01:19:33.477
01:26:11.333 : en:01:26:11.333
01:31:31.569 : en:01:31:31.569
Скриншоты
Скачать

Скачать торрент!

Как скачивать? · Что такое торрент? · Рейтинг и ограничения

Сайт не распространяет и не хранит электронные версии произведений, а лишь предоставляет доступ к создаваемому пользователями каталогу ссылок на торрент-файлы, которые содержат только списки хеш-сумм

[Профиль] [ЛС]
Показать сообщения:    
Ответить на тему

Текущее время: Сегодня 16:09

Часовой пояс: GMT + 4



Вы не можете начинать темы
Вы не можете отвечать на сообщения
Вы не можете редактировать свои сообщения
Вы не можете удалять свои сообщения
Вы не можете голосовать в опросах
Вы не можете прикреплять файлы к сообщениям
Вы не можете скачивать файлы