Первопроходец / Pioneer (Эрик Шёлдбьерг / Erik Skjoldbjærg) [2013, Норвегия, Германия, Швеция, Франция, Финляндия, триллер, BDRemux 1080p] DVO (студия NLS) + Original (Nor) + Subs (Rus, Eng)

Ответить на тему
 
Автор Сообщение

user ®

Стаж: 7 лет 7 месяцев

Сообщений: 20008

Пост Пост: #1 от 13-Янв-2015 03:45

[Цитировать]

Первопроходец / Pioneer

-
-Страна: Норвегия, Германия, Швеция, Франция, Финляндия
Студия: Film i Väst, Friland A/S, Garagefilm International, Les Films d'Antoine, MRP Matila Röhr Productions Oy, Pandora Filmproduktion GmbH
Жанр: триллер
Год выпуска: 2013
Продолжительность: 01:51:14--Перевод: Профессиональный (двухголосый закадровый) студия NLS
Cубтитры: русские (notabenoid), английские
Оригинальная аудиодорожка: норвежский--Режиссер: Эрик Шёлдбьерг / Erik Skjoldbjærg
В ролях: Уэс Бентли, Стивен Лэнг, Аксель Хенни, Джонатан ЛаПалья, Стефани Сигман, Ёрген Лангхелле, Эни Даль Торп, Андре Эриксен, Эндре Хеллествейт, Арни Линдтнер Нэсс--Описание: Начало 1980-х гг. В Северном море обнаружены огромные запасы нефти и газа. В начале норвежского нефтяного бума власти намерены любой ценой доставлять на берег «черное» и «голубое золото» планеты по трубопроводу с глубины 500 метров, перед этим проводя разведку месторождения. Профессиональный дайвер Петтер, одержимый идеей достижения дна Норвежского моря, — полон решимости, силы и мужества, чтобы браться за самую опасную в мире работу и спуститься на эту глубину. Но неожиданная случайность меняет все. И теперь Петтер отправляется в опасное путешествие, в котором он теряет из вида того, кто дергает за ниточки в этой многомиллионной игре, постепенно понимая, что он оказывается на его пути и что его жизнь находится под угрозой.--imdb | kinopoisk | Сэмпл--Тип релиза: BDRemux 1080p [Pioneer 2013 1080p NOR Blu-ray AVC DTS-HD MA 7.1-PPKORE]
Контейнер: MKV
Видео: MPEG-4 AVC / 35621 kbps / 1920x1080 / 24 fps / 16:9 / High Profile 4.1
Аудио 1: Russian AC3 / 2.0 / 48 kHz / 192 kbps / 16 bits |DVO, студия NLS|
Аудио 2: Norwegian DTS-HD Master Audio / 7.1 / 48 kHz / 5100 kbps / 24 bits (DTS Core: 5.1 / 48 kHz / 1509 kbps / 24 bits) |original|
Формат субтитров: softsub [SRT]

MediaInfo
Общее
Уникальный идентификатор                 : 193457643280036925003275119257848576983 (0x918A963998D60FC8B12D8AE3653AFBD7)
Полное имя                               : G:\HD\Первопроходец.2014.Blu-Ray.Remux.(1080p)_arxivariys.mkv
Формат                                   : Matroska
Версия формата                           : Version 4 / Version 2
Размер файла                             : 31,8 Гбайт
Продолжительность                        : 1 ч. 51 м.
Режим общего битрейта                    : Переменный
Общий поток                              : 40,9 Мбит/сек
Дата кодирования                         : UTC 2015-01-11 12:32:37
Программа кодирования                    : mkvmerge v7.5.0 ('Glass Culture') 64bit built on Jan  4 2015 16:48:44
Библиотека кодирования                   : libebml v1.3.1 + libmatroska v1.4.2
Attachements                             : poster.jpg
Видео
Идентификатор                            : 1
Формат                                   : AVC
Формат/Информация                        : Advanced Video Codec
Профиль формата                          : High@L4.1
Параметр CABAC формата                   : Да
Параметр ReFrames формата                : 3 кадра
Идентификатор кодека                     : V_MPEG4/ISO/AVC
Продолжительность                        : 1 ч. 51 м.
Вид битрейта                             : Переменный
Номинальный битрейт                      : 38,0 Мбит/сек
Максимальный битрейт                     : 38,0 Мбит/сек
Ширина                                   : 1920 пикселей
Высота                                   : 1080 пикселей
Соотношение сторон                       : 16:9
Режим частоты кадров                     : Постоянный
Частота кадров                           : 24,000 кадра/сек
Цветовое пространство                    : YUV
Субдискретизация насыщенности            : 4:2:0
Битовая глубина                          : 8 бит
Тип развёртки                            : Прогрессивная
Бит/(Пиксели*Кадры)                      : 0.764
Библиотека кодирования                   : x264 core 130 r2273 b3065e6
Настройки программы                      : cabac=1 / ref=4 / deblock=1:-1:-1 / analyse=0x3:0x133 / me=umh / subme=10 / psy=1 / psy_rd=1.00:0.15 / mixed_ref=1 / me_range=24 / chroma_me=1 / trellis=2 / 8x8dct=1 / cqm=0 / deadzone=21,11 / fast_pskip=1 / chroma_qp_offset=-3 / threads=36 / lookahead_threads=3 / sliced_threads=0 / slices=4 / nr=0 / decimate=1 / interlaced=0 / bluray_compat=1 / constrained_intra=0 / bframes=3 / b_pyramid=1 / b_adapt=2 / b_bias=0 / direct=3 / weightb=1 / open_gop=1 / weightp=1 / keyint=24 / keyint_min=1 / scenecut=40 / intra_refresh=0 / rc_lookahead=24 / rc=2pass / mbtree=1 / bitrate=38000 / ratetol=1.0 / qcomp=0.60 / qpmin=0 / qpmax=69 / qpstep=4 / cplxblur=20.0 / qblur=0.5 / vbv_maxrate=38000 / vbv_bufsize=30000 / nal_hrd=vbr / ip_ratio=1.40 / aq=1:1.00
Default                                  : Да
Forced                                   : Нет
Основные цвета                           : BT.709
Характеристики трансфера                 : BT.709
Коэффициенты матрицы                     : BT.709
colour_range                             : Limited
Аудио #1
Идентификатор                            : 2
Формат                                   : AC-3
Формат/Информация                        : Audio Coding 3
Расширение режима                        : CM (complete main)
Параметр Endianness формата              : Big
Идентификатор кодека                     : A_AC3
Продолжительность                        : 1 ч. 51 м.
Вид битрейта                             : Постоянный
Битрейт                                  : 192 Кбит/сек
Каналы                                   : 2 канала
Расположение каналов                     : Front: L R
Частота                                  : 48,0 КГц
Битовая глубина                          : 16 бит
Метод сжатия                             : С потерями
Размер потока                            : 153 Мбайт (0%)
Заголовок                                : DVO, студия NLS
Язык                                     : Russian
Default                                  : Да
Forced                                   : Нет
Аудио #2
Идентификатор                            : 3
Формат                                   : DTS
Формат/Информация                        : Digital Theater Systems
Профиль формата                          : MA / Core
Режим                                    : 16
Параметр Endianness формата              : Big
Идентификатор кодека                     : A_DTS
Продолжительность                        : 1 ч. 51 м.
Вид битрейта                             : Переменный
Битрейт                                  : Неизвестно / 1509 Кбит/сек
Каналы                                   : 8 каналов / 6 каналов
Расположение каналов                     : Front: L C R, Side: L R, Back: L R, LFE / Front: L C R, Side: L R, LFE
Частота                                  : 48,0 КГц
Битовая глубина                          : 24 бит
Метод сжатия                             : Без потерь / Lossy
Язык                                     : Norwegian
Default                                  : Нет
Forced                                   : Нет
Текст #1
Идентификатор                            : 4
Формат                                   : UTF-8
Идентификатор кодека                     : S_TEXT/UTF8
Идентификатор кодека/Информация          : UTF-8 Plain Text
Заголовок                                : notabenoid
Язык                                     : Russian
Default                                  : Нет
Forced                                   : Нет
Текст #2
Идентификатор                            : 5
Формат                                   : UTF-8
Идентификатор кодека                     : S_TEXT/UTF8
Идентификатор кодека/Информация          : UTF-8 Plain Text
Язык                                     : English
Default                                  : Нет
Forced                                   : Нет
Меню
00:00:00.000                             : :Chapter 01
00:08:49.750                             : :Chapter 02
00:20:23.583                             : :Chapter 03
00:28:24.041                             : :Chapter 04
00:38:57.833                             : :Chapter 05
00:49:50.333                             : :Chapter 06
01:02:21.458                             : :Chapter 07
01:10:53.083                             : :Chapter 08
01:18:03.125                             : :Chapter 09
01:28:41.250                             : :Chapter 10
01:38:23.000                             : :Chapter 11
01:44:53.125                             : :Chapter 12
Скриншоты Дополнительно
Цитата:
За русскую дорожку спасибо [url=http://***/forum/profile.php?mode=viewprofile&u=5375730]25k[/url]
Инфо основного бранча (.m2ts-файла) исходного блюрей диска
скрытый текст
Общее
Идентификатор                            : 0 (0x0)
Полное имя                               : H:\Pioneer.2013.BluRay.1080p.AVC.DTS-HD.MA.7.1-PPKORE\BDMV\STREAM\00015.m2ts
Формат                                   : BDAV
Формат/Информация                        : Blu-ray Video
Размер файла                             : 33,8 Гбайт
Продолжительность                        : 1 ч. 51 м.
Режим общего битрейта                    : Переменный
Общий поток                              : 43,6 Мбит/сек
Максимальный общий битрейт               : 48,0 Мбит/сек
Видео
Идентификатор                            : 4113 (0x1011)
Идентификатор меню                       : 1 (0x1)
Формат                                   : AVC
Формат/Информация                        : Advanced Video Codec
Профиль формата                          : High@L4.1
Параметр CABAC формата                   : Да
Параметр ReFrames формата                : 3 кадра
Идентификатор кодека                     : 27
Продолжительность                        : 1 ч. 51 м.
Вид битрейта                             : Переменный
Номинальный битрейт                      : 38,0 Мбит/сек
Максимальный битрейт                     : 38,0 Мбит/сек
Ширина                                   : 1920 пикселей
Высота                                   : 1080 пикселей
Соотношение сторон                       : 16:9
Частота кадров                           : 24,000 кадра/сек
Цветовое пространство                    : YUV
Субдискретизация насыщенности            : 4:2:0
Битовая глубина                          : 8 бит
Тип развёртки                            : Прогрессивная
Бит/(Пиксели*Кадры)                      : 0.764
Библиотека кодирования                   : x264 core 130 r2273 b3065e6
Настройки программы                      : cabac=1 / ref=4 / deblock=1:-1:-1 / analyse=0x3:0x133 / me=umh / subme=10 / psy=1 / psy_rd=1.00:0.15 / mixed_ref=1 / me_range=24 / chroma_me=1 / trellis=2 / 8x8dct=1 / cqm=0 / deadzone=21,11 / fast_pskip=1 / chroma_qp_offset=-3 / threads=36 / lookahead_threads=3 / sliced_threads=0 / slices=4 / nr=0 / decimate=1 / interlaced=0 / bluray_compat=1 / constrained_intra=0 / bframes=3 / b_pyramid=1 / b_adapt=2 / b_bias=0 / direct=3 / weightb=1 / open_gop=1 / weightp=1 / keyint=24 / keyint_min=1 / scenecut=40 / intra_refresh=0 / rc_lookahead=24 / rc=2pass / mbtree=1 / bitrate=38000 / ratetol=1.0 / qcomp=0.60 / qpmin=0 / qpmax=69 / qpstep=4 / cplxblur=20.0 / qblur=0.5 / vbv_maxrate=38000 / vbv_bufsize=30000 / nal_hrd=vbr / ip_ratio=1.40 / aq=1:1.00
Основные цвета                           : BT.709
Характеристики трансфера                 : BT.709
Коэффициенты матрицы                     : BT.709
colour_range                             : Limited
Аудио #1
Идентификатор                            : 4352 (0x1100)
Идентификатор меню                       : 1 (0x1)
Формат                                   : AC-3
Формат/Информация                        : Audio Coding 3
Расширение режима                        : CM (complete main)
Параметр Endianness формата              : Big
Идентификатор кодека                     : 129
Продолжительность                        : 1 ч. 51 м.
Вид битрейта                             : Постоянный
Битрейт                                  : 640 Кбит/сек
Каналы                                   : 6 каналов
Расположение каналов                     : Front: L C R, Side: L R, LFE
Частота                                  : 48,0 КГц
Битовая глубина                          : 16 бит
Метод сжатия                             : С потерями
Размер потока                            : 509 Мбайт (1%)
Аудио #2
Идентификатор                            : 4353 (0x1101)
Идентификатор меню                       : 1 (0x1)
Формат                                   : DTS
Формат/Информация                        : Digital Theater Systems
Профиль формата                          : MA / Core
Режим                                    : 16
Параметр Endianness формата              : Big
Режим смешивания                         : Stream extension
Идентификатор кодека                     : 134
Продолжительность                        : 1 ч. 51 м.
Вид битрейта                             : Переменный
Битрейт                                  : Неизвестно / 1509 Кбит/сек
Каналы                                   : 8 каналов / 6 каналов
Расположение каналов                     : Front: L C R, Side: L R, Back: L R, LFE / Front: L C R, Side: L R, LFE
Частота                                  : 48,0 КГц
Битовая глубина                          : 24 бит
Метод сжатия                             : Без потерь / Lossy
Текст #1
Идентификатор                            : 4608 (0x1200)
Идентификатор меню                       : 1 (0x1)
Формат                                   : PGS
Идентификатор кодека                     : 144
Текст #2
Идентификатор                            : 4609 (0x1201)
Идентификатор меню                       : 1 (0x1)
Формат                                   : PGS
Идентификатор кодека                     : 144
Скачать

Скачать торрент!

Как скачивать? · Что такое торрент? · Рейтинг и ограничения

Сайт не распространяет и не хранит электронные версии произведений, а лишь предоставляет доступ к создаваемому пользователями каталогу ссылок на торрент-файлы, которые содержат только списки хеш-сумм

[Профиль] [ЛС]
Показать сообщения:    
Ответить на тему

Текущее время: Сегодня 14:32

Часовой пояс: GMT + 4



Вы не можете начинать темы
Вы не можете отвечать на сообщения
Вы не можете редактировать свои сообщения
Вы не можете удалять свои сообщения
Вы не можете голосовать в опросах
Вы не можете прикреплять файлы к сообщениям
Вы не можете скачивать файлы