Любить по-русски 3: Губернатор (Евгений Матвеев) [1999, остросюжетная мелодрама, DVB]

Ответить на тему
 
Автор Сообщение

user ®

Стаж: 7 лет 7 месяцев

Сообщений: 20008

Пост Пост: #1 от 12-Янв-2015 20:12

[Цитировать]

Любить по-русски 3
Жанр: остросюжетная мелодрама
Год выпуска: 1999
Продолжительность: 01:31:42
Режиссёры: Евгений Матвеев
В ролях: Евгений Матвеев, Галина Польских, Георгий Мартиросян, Лариса Удовиченко, Ольга Егорова, Никита Джигурда
Описание: Бывший фермер Мухин становится губернатором и получает предупреждение: если в течение семи дней он не изменит своего решения о строительстве моста, стратегически важного для области, но затрагивающего интересы теневой экономики, последствия будут самыми серьезными…
Доп. информация: конечные титры немного ускорены

Семпл: https://yadi.sk/i/cXnWgplvdtnuj
Качество видео: DVB (Yamal 402 at 54.9°E)
Формат видео: MPEG-PS
Видео: MPEG2 Video, 720x576 (4:3), 25 fps, 4500 kbps
Аудио: MPEG Audiо, 2 сh, 48 kHz, 192 kbps
MediaInfo
General
Complete name : G:\Любить по-русски 3. (1999)_DVB by SLuMeP.mpg
Format : MPEG-PS
File size : 3.04 GiB
Duration : 1h 31mn
Overall bit rate mode : Variable
Overall bit rate : 4 746 Kbps
Writing library : (dvd5: Jun 16 2014)
Video
ID : 224 (0xE0)
Format : MPEG Video
Format version : Version 2
Format profile : Main@Main
Format settings, BVOP : Yes
Format settings, Matrix : Custom
Format settings, GOP : M=3, N=12
Duration : 1h 31mn
Bit rate mode : Variable
Bit rate : 4 459 Kbps
Maximum bit rate : 15.0 Mbps
Width : 720 pixels
Height : 576 pixels
Display aspect ratio : 4:3
Frame rate : 25.000 fps
Standard : PAL
Color space : YUV
Chroma subsampling : 4:2:0
Bit depth : 8 bits
Scan type : Interlaced
Scan order : Top Field First
Compression mode : Lossy
Bits/(Pixel*Frame) : 0.430
Time code of first frame : 00:00:00:00
Time code source : Group of pictures header
Stream size : 2.86 GiB (94%)
Source encoded stream size : (dvd5: Jun 16 2014)
Writing library : (dvd5: Jun 16 2014)
Audio
ID : 192 (0xC0)
Format : MPEG Audio
Format version : Version 1
Format profile : Layer 2
Duration : 1h 31mn
Bit rate mode : Constant
Bit rate : 192 Kbps
Channel(s) : 2 channels
Sampling rate : 48.0 KHz
Compression mode : Lossy
Delay relative to video : -40ms
Stream size : 126 MiB (4%)
Menu
Сравнение
[url=http://***/forum/viewtopic.php?t=680830]http://***/forum/viewtopic.php?t=680830[/url]
http://screenshotcomparison.com/comparison/108706
Скриншоты
Скачать

Скачать торрент!

Как скачивать? · Что такое торрент? · Рейтинг и ограничения

Сайт не распространяет и не хранит электронные версии произведений, а лишь предоставляет доступ к создаваемому пользователями каталогу ссылок на торрент-файлы, которые содержат только списки хеш-сумм

[Профиль] [ЛС]
Показать сообщения:    
Ответить на тему

Текущее время: Сегодня 05:04

Часовой пояс: GMT + 4



Вы не можете начинать темы
Вы не можете отвечать на сообщения
Вы не можете редактировать свои сообщения
Вы не можете удалять свои сообщения
Вы не можете голосовать в опросах
Вы не можете прикреплять файлы к сообщениям
Вы не можете скачивать файлы