Особенности национальной политики (Юрий Конопкин, Дмитрий Месхиев) [2003, комедия, DVDRip-AVC]

Ответить на тему
 
Автор Сообщение

user ®

Стаж: 7 лет 7 месяцев

Сообщений: 20008

Пост Пост: #1 от 12-Янв-2015 20:12

[Цитировать]

Особенности национальной политики
Жанр: комедия
Год выпуска: 2003
Продолжительность: 01:22:35
Режиссёр: Юрий Конопкин, Дмитрий Месхиев
В ролях: Алексей Булдаков, Семён Стругачев, Виктор Бычков, Сергей Русскин, Сергей Гусинский, Нина Усатова, Игорь Копылов, Юрий Кузнецов, Михаил Пореченков, Андрей Зибров...
Описание: Генерал Иволгин баллотируется на ответственный пост. Высокие рейтинги неизвестно откуда взявшегося наглого соперника приводят в замешательство конкурентов.
Разгадать секрет популярности генерала пытаются коммунисты, бандиты, бизнесмены, «агент влияния» Инна Усман и даже главный фээсбэшник страны Виктор Сергеевич, шаг за шагом доказывая в своем расследовании, что «политика — дело грязное»…
Сэмпл: http://multi-up.com/1026128
Качество видео: DVDRip-AVC [url=http://***/forum/viewtopic.php?t=218718]Исходник[/url]
Формат видео: MKV
Видео: 676x570 (1.686) @ 962x570, 25.000 fps, AVC, ~2272 Kbps, 0.236 bits/pixel
Аудио: 48.0 KHz, AC3, 2 ch, 224 Kbps

Сравнение
[url=http://***/forum/viewtopic.php?t=3868692]http://***/forum/viewtopic.php?t=3868692[/url]
http://screenshotcomparison.com/comparison/108979/picture:2
Log
avs4x264.exe: -L x264_64.exe --pass 2 --bitrate 2272 --preset medium --ref 10 --deblock -1:-1 --merange 32 --bframes 10 --direct auto --b-adapt 2 --trellis 2 --no-fast-pskip --psy-rd 1.00:0.10 --partitions all --subme 10 --me umh --rc-lookahead 50 --sar 64:45 --stats
raw [info]: 676x570p 64:45 @ 25/1 fps (cfr)
x264 [info]: using SAR=64/45
x264 [info]: using cpu capabilities: MMX2 SSE2Fast LZCNT
x264 [info]: profile High, level 3.1
x264 [info]: frame I:700 Avg QP:17.65 size: 64402
x264 [info]: frame P:25793 Avg QP:20.74 size: 27299
x264 [info]: frame B:97383 Avg QP:24.08 size: 6758
x264 [info]: consecutive B-frames: 1.6% 2.2% 8.2% 13.7% 8.0% 64.3% 1.3% 0.3% 0.4% 0.1% 0.1%
x264 [info]: mb I I16..4: 4.9% 79.2% 15.9%
x264 [info]: mb P I16..4: 1.1% 13.8% 2.0% P16..4: 37.2% 22.8% 18.0% 0.9% 0.3% skip: 3.8%
x264 [info]: mb B I16..4: 0.1% 1.4% 0.3% B16..8: 35.3% 12.1% 4.0% direct: 7.0% skip:39.8% L0:35.7% L1:44.6% BI:19.7%
x264 [info]: 8x8 transform intra:80.7% inter:67.9%
x264 [info]: direct mvs spatial:98.0% temporal:2.0%
x264 [info]: coded y,uvDC,uvAC intra: 87.3% 79.2% 47.6% inter: 26.0% 18.9% 2.9%
x264 [info]: i16 v,h,dc,p: 43% 14% 10% 34%
x264 [info]: i8 v,h,dc,ddl,ddr,vr,hd,vl,hu: 17% 9% 10% 8% 11% 13% 9% 12% 10%
x264 [info]: i4 v,h,dc,ddl,ddr,vr,hd,vl,hu: 20% 17% 4% 7% 10% 14% 8% 11% 8%
x264 [info]: i8c dc,h,v,p: 37% 22% 27% 15%
x264 [info]: Weighted P-Frames: Y:2.5% UV:0.8%
x264 [info]: ref P L0: 41.4% 13.2% 19.5% 5.6% 5.8% 3.6% 4.2% 2.0% 2.3% 1.9% 0.3% 0.0%
x264 [info]: ref B L0: 76.6% 10.8% 4.5% 2.3% 1.8% 1.5% 1.6% 0.6% 0.3%
x264 [info]: ref B L1: 94.8% 5.2%
x264 [info]: kb/s:2272.13
x264 [total]: encoded 123876 frames, 11.77 fps, 2272.13 kb/s
MediaInfo
General
Unique ID : 193542349739721543874353115364800524318 (0x919AE6936DAF2EDB87F93843C572F01E)
Complete name : C:\Особенности национальной политики.mkv
Format : Matroska
Format version : Version 4 / Version 2
File size : 1.44 GiB
Duration : 1h 22mn
Overall bit rate : 2 498 Kbps
Encoded date : UTC 2015-01-11 11:27:55
Writing application : mkvmerge v7.5.0 ('Glass Culture') 64bit built on Jan 4 2015 16:48:44
Writing library : libebml v1.3.1 + libmatroska v1.4.2
DURATION : 01:22:35.008000000
NUMBER_OF_FRAMES : 154844
NUMBER_OF_BYTES : 138740224
_STATISTICS_WRITING_APP : mkvmerge v7.5.0 ('Glass Culture') 64bit built on Jan 4 2015 16:48:44
_STATISTICS_WRITING_DATE_UT : 2015-01-11 11:27:55
_STATISTICS_TAGS : BPS DURATION NUMBER_OF_FRAMES NUMBER_OF_BYTES
Video
ID : 1
Format : AVC
Format/Info : Advanced Video Codec
Format profile : High@L3.1
Format settings, CABAC : Yes
Format settings, ReFrames : 10 frames
Codec ID : V_MPEG4/ISO/AVC
Duration : 1h 22mn
Bit rate : 2 272 Kbps
Width : 676 pixels
Height : 570 pixels
Display aspect ratio : 1.686
Original display aspect rat : 1.687
Frame rate mode : Constant
Frame rate : 25.000 fps
Color space : YUV
Chroma subsampling : 4:2:0
Bit depth : 8 bits
Scan type : Progressive
Bits/(Pixel*Frame) : 0.236
Stream size : 1.28 GiB (89%)
Writing library : x264 core 142 r2479 dd79a61
Encoding settings : cabac=1 / ref=10 / deblock=1:-1:-1 / analyse=0x3:0x133 / me=umh / subme=10 / psy=1 / psy_rd=1.00:0.10 / mixed_ref=1 / me_range=32 / chroma_me=1 / trellis=2 / 8x8dct=1 / cqm=0 / deadzone=21,11 / fast_pskip=0 / chroma_qp_offset=-3 / threads=6 / lookahead_threads=1 / sliced_threads=0 / nr=0 / decimate=1 / interlaced=0 / bluray_compat=0 / constrained_intra=0 / bframes=10 / b_pyramid=2 / b_adapt=2 / b_bias=0 / direct=3 / weightb=1 / open_gop=0 / weightp=2 / keyint=250 / keyint_min=25 / scenecut=40 / intra_refresh=0 / rc_lookahead=50 / rc=2pass / mbtree=1 / bitrate=2272 / ratetol=1.0 / qcomp=0.60 / qpmin=0 / qpmax=69 / qpstep=4 / cplxblur=20.0 / qblur=0.5 / ip_ratio=1.40 / aq=1:1.00
Default : Yes
Forced : No
Audio
ID : 2
Format : AC-3
Format/Info : Audio Coding 3
Mode extension : CM (complete main)
Format settings, Endianness : Big
Codec ID : A_AC3
Duration : 1h 22mn
Bit rate mode : Constant
Bit rate : 224 Kbps
Channel(s) : 2 channels
Channel positions : Front: L R
Sampling rate : 48.0 KHz
Bit depth : 16 bits
Compression mode : Lossy
Stream size : 132 MiB (9%)
Language : Russian
Default : Yes
Forced : No
Menu
00:00:00.000 : :Chapter 01
00:12:11.520 : :Chapter 02
00:21:24.000 : :Chapter 03
00:26:52.320 : :Chapter 04
00:36:27.840 : :Chapter 05
00:47:47.520 : :Chapter 06
00:51:00.480 : :Chapter 07
01:01:07.680 : :Chapter 08
01:12:39.840 : :Chapter 09
01:18:05.760 : :Chapter 10
Скриншоты
Скачать

Скачать торрент!

Как скачивать? · Что такое торрент? · Рейтинг и ограничения

Сайт не распространяет и не хранит электронные версии произведений, а лишь предоставляет доступ к создаваемому пользователями каталогу ссылок на торрент-файлы, которые содержат только списки хеш-сумм

[Профиль] [ЛС]
Показать сообщения:    
Ответить на тему

Текущее время: Сегодня 17:47

Часовой пояс: GMT + 4



Вы не можете начинать темы
Вы не можете отвечать на сообщения
Вы не можете редактировать свои сообщения
Вы не можете удалять свои сообщения
Вы не можете голосовать в опросах
Вы не можете прикреплять файлы к сообщениям
Вы не можете скачивать файлы