Леди-убийца / The Lady Assassin / Ching Gung Kai Si Luk (Тони Лиу / Tony Liu) [1983, Гонконг, Китай, драма, история, кунг-фу, DVDRip] VO

Ответить на тему
 
Автор Сообщение

user ®

Стаж: 13 лет

Сообщений: 15071

Пост Пост: #1 от 12-Янв-2015 00:33

[Цитировать]

Леди-убийца / The Lady Assassin / Ching Gung Kai Si Luk- -Страна: Гонконг, Китай
Жанр: драма, история, кунг-фу
Год выпуска: 1983
Продолжительность: 01:26:05-Перевод: Одноголосый закадровый [Sammo] (NeonBoyBoy)-Cубтитры: нет
Оригинальная аудиодорожка: нет
Режиссер: Тони Лиу / Tony Liu
В ролях: Энтони Лау, Макс Мок, Норман Чу, Джейсон Пай, Ку Фенг, Чеунг Кинг, Лау Суэт...
Описание: Старый император решает передать трон одному из своих сыновей, Четырнадцатому принцу, а пока, назначает его генералом, и оправляет вести войска в
Си Нинг. Этим не доволен другой его сын, подлый и алчный Четвертый принц, который обманом склоняет на свою сторону Мастера запретного письма, и его племянницу Си Ньянг. Си Ньянг выкрадывает из дворца указ, в котором значится что трон переходит Четырнадцатому принцу, а Мастер письма исправляет имя настоящего наследника на Четвертого принца.
Только позже, наши герои понимают кому помогли... (Sammo)
Релиз от -
Сэмпл: http://multi-up.com/1025960
Качество видео: DVDRip
Формат видео: AVI
Видео: MPEG-4 Visual at 1071 Кбит/сек; 688 x 304 (2.263) at 23.976 fps
Аудио: MPEG Audio at 128 Кбит/сек; 2 канала, 48,0 КГц
Автор -
MediaInfo
Общее
Полное имя : D:\Фильмы\Азиатские\Леди-убийца\The Lady Assassin.1983.DVDRip.XviD.745MB. rip by [Assassin's Creed].avi
Формат : AVI
Формат/Информация : Audio Video Interleave
Размер файла : 747 Мбайт
Продолжительность : 1 ч. 26 м.
Общий поток : 1208 Кбит/сек
Программа кодирования : VirtualDubMod 1.5.10.3 | www.virtualdub-fr.org || (build 2550/release)
Библиотека кодирования : VirtualDubMod build 2550/release
Видео
Идентификатор : 0
Формат : MPEG-4 Visual
Профиль формата : Advanced Simple@L5
Параметр BVOP формата : 1
Параметр QPel формата : Нет
Параметр GMC формата : Без точки перехода
Параметр матрицы формата : Default (MPEG)
Идентификатор кодека : XVID
Идентификатор кодека/Подсказка : XviD
Продолжительность : 1 ч. 26 м.
Битрейт : 1071 Кбит/сек
Ширина : 688 пикселей
Высота : 304 пикселя
Соотношение сторон : 2,25:1
Частота кадров : 23,976 кадра/сек
Цветовое пространство : YUV
Субдискретизация насыщенности : 4:2:0
Битовая глубина : 8 бит
Тип развёртки : Прогрессивная
Метод сжатия : С потерями
Бит/(Пиксели*Кадры) : 0.214
Размер потока : 663 Мбайт (89%)
Библиотека кодирования : XviD 1.2.1 (UTC 2008-12-04)
Аудио
Идентификатор : 1
Формат : MPEG Audio
Версия формата : Version 1
Профиль формата : Layer 3
Идентификатор кодека : 55
Идентификатор кодека/Подсказка : MP3
Продолжительность : 1 ч. 26 м.
Вид битрейта : Постоянный
Битрейт : 128 Кбит/сек
Каналы : 2 канала
Частота : 48,0 КГц
Метод сжатия : С потерями
Размер потока : 79,2 Мбайт (11%)
Выравнивание : Соединение по промежуткам
Продолжительность промежутка : 42 мс. (1,00 видеокадр)
Время предзагрузки промежутка : 504 мс.
Библиотека кодирования : LAME3.99r
Настройки программы : -m s -V 4 -q 2 -lowpass 17 -b 128
Скриншот c названием фильма Скриншоты
Скачать

Скачать торрент! Леди-убийца / The Lady Assassin / Ching Gung Kai Si Luk (Тони Лиу / Tony Liu) [1983, Гонконг, Китай, драма, история, кунг-фу, DVDRip] VO

Как скачивать? · Что такое торрент? · Рейтинг и ограничения

Сайт не распространяет и не хранит электронные версии произведений, а лишь предоставляет доступ к создаваемому пользователями каталогу ссылок на торрент-файлы, которые содержат только списки хеш-сумм

[Профиль] [ЛС]
Показать сообщения:    
Ответить на тему

Текущее время: Сегодня 16:46

Часовой пояс: GMT + 4



Вы не можете начинать темы
Вы не можете отвечать на сообщения
Вы не можете редактировать свои сообщения
Вы не можете удалять свои сообщения
Вы не можете голосовать в опросах
Вы не можете прикреплять файлы к сообщениям
Вы не можете скачивать файлы