Хрустальная Фея и Волшебный Кактус и 2012 / Кристал Фэйри и Волшебный Кактус и 2012 / Crystal Fairy & The Magical Cactus And 2012 (Себастьян Сильва / Sebastian Silva) [2013, Чили, комедия, приключения, BDRip 1080p]

Ответить на тему
 
Автор Сообщение

user ®

Стаж: 7 лет 7 месяцев

Сообщений: 20008

Пост Пост: #1 от 12-Янв-2015 00:33

[Цитировать]

Хрустальная Фея и Волшебный кактус и 2012 / Crystal Fairy & the Magical Cactus and 2012
Страна: Чили
Студия: Diroriro, FABULA
Жанр: комедия, приключения
Год выпуска: 2013
Продолжительность: 01:38:39
Перевод: Любительский (многоголосый закадровый) [Black Street Records]
Cубтитры: Русские полные (perevodman), Eng forced
Оригинальная аудиодорожка: английский
Перевод - perevodman
Озвучили - Евгений "Fat Chop", Евгений Фадеев, Василий Сиприков, Оля Норкс, Дарья Иовенко
Работа со Звуком - Евгений "Fat Chop"
Режиссер: Себастьян Сильва / Sebastián Silva
В ролях: Майкл Сера, Габи Хоффманн, Хуан Андрес Сильва, Аугусто Силва, Хосе Мигель Сильва, Mariana Nicolich Aristich, Грасия Аристия, Мануэла Бальдовино, Гари Бойд
Описание: У Джейми удивительная способность создавать хаос везде, где он появляется. Вместе с друзьями он отправляется в путешествие по дорогам Чили в надежде найти и опробовать легендарный кактус Сан-Педро, который местный шаманы издавна использовали как сильный галлюциноген. По пути он знакомится с эксцентричной девушкой – Кристал Фэйри, – которая становится их провожатым по здешним пустыням.
Сэмпл: Тут
Тип релиза: BDRip 1080p
Контейнер: MKV
ПЕРЕКАЧАЙТЕ ТОРРЕНТ
Видео: avc, 1920x808, 2.40:1, 23.976 fps, 9 590 Kbps
Аудио 1: Ru, dts, 1 509 Kbps, 24 bits, 48.0 KHz, 6ch (MVO Black Street Records)
Аудио 2: Eng, dts, 1 509 Kbps, 24 bits, 48.0 KHz, 6ch (Original)
Формат субтитров: softsub (SRT)


MediaInfo
General
Unique ID : 203173789540278894049957597862189458694 (0x98D9D9388AF7D29987FDD880905DE506)
Complete name : R:\ФИЛЬМЫ\СВОЁ\Хрустальная Фея\Crystal Fairy 2013 1080p Black Street Records MVO.mkv
Format : Matroska
Format version : Version 4 / Version 2
File size : 8.69 GiB
Duration : 1h 38mn
Overall bit rate : 12.6 Mbps
Encoded date : UTC 2015-01-11 18:08:39
Writing application : mkvmerge v6.7.0 ('Back to the Ground') 64bit built on Jan 8 2014 15:10:52
Writing library : libebml v1.3.0 + libmatroska v1.4.1
Attachment : Yes
Video
ID : 1
Format : AVC
Format/Info : Advanced Video Codec
Format profile : High@L4.1
Format settings, CABAC : Yes
Format settings, ReFrames : 5 frames
Codec ID : V_MPEG4/ISO/AVC
Duration : 1h 38mn
Bit rate : 9 590 Kbps
Width : 1 920 pixels
Height : 808 pixels
Display aspect ratio : 2.40:1
Frame rate mode : Constant
Frame rate : 23.976 fps
Color space : YUV
Chroma subsampling : 4:2:0
Bit depth : 8 bits
Scan type : Progressive
Bits/(Pixel*Frame) : 0.258
Stream size : 6.44 GiB (74%)
Title : X264
Writing library : x264 core 140 r2377 1ca7bb9
Encoding settings : cabac=1 / ref=5 / deblock=1:0:0 / analyse=0x3:0x133 / me=umh / subme=7 / psy=1 / psy_rd=1.00:0.00 / mixed_ref=1 / me_range=16 / chroma_me=1 / trellis=1 / 8x8dct=1 / cqm=0 / deadzone=21,11 / fast_pskip=0 / chroma_qp_offset=-2 / threads=18 / lookahead_threads=3 / sliced_threads=0 / nr=0 / decimate=1 / interlaced=0 / bluray_compat=0 / constrained_intra=0 / bframes=3 / b_pyramid=2 / b_adapt=1 / b_bias=0 / direct=1 / weightb=1 / open_gop=0 / weightp=2 / keyint=250 / keyint_min=23 / scenecut=40 / intra_refresh=0 / rc_lookahead=40 / rc=2pass / mbtree=1 / bitrate=9590 / ratetol=1.0 / qcomp=0.60 / qpmin=0 / qpmax=69 / qpstep=4 / cplxblur=20.0 / qblur=0.5 / ip_ratio=1.40 / aq=1:1.00
Language : English
Default : Yes
Forced : No
Audio #1
ID : 2
Format : DTS
Format/Info : Digital Theater Systems
Mode : 16
Format settings, Endianness : Big
Codec ID : A_DTS
Duration : 1h 38mn
Bit rate mode : Constant
Bit rate : 1 509 Kbps
Channel(s) : 6 channels
Channel positions : Front: L C R, Side: L R, LFE
Sampling rate : 48.0 KHz
Bit depth : 24 bits
Compression mode : Lossy
Stream size : 1.04 GiB (12%)
Title : Black Street Records rus dts
Language : Russian
Default : Yes
Forced : No
Audio #2
ID : 3
Format : DTS
Format/Info : Digital Theater Systems
Mode : 16
Format settings, Endianness : Big
Codec ID : A_DTS
Duration : 1h 38mn
Bit rate mode : Constant
Bit rate : 1 509 Kbps
Channel(s) : 6 channels
Channel positions : Front: L C R, Side: L R, LFE
Sampling rate : 48.0 KHz
Bit depth : 24 bits
Compression mode : Lossy
Stream size : 1.04 GiB (12%)
Title : DTS_original
Language : English
Default : No
Forced : No
Text #1
ID : 4
Format : UTF-8
Codec ID : S_TEXT/UTF8
Codec ID/Info : UTF-8 Plain Text
Title : Rus_full-perevodman-
Language : Russian
Default : No
Forced : No
Text #2
ID : 5
Format : UTF-8
Codec ID : S_TEXT/UTF8
Codec ID/Info : UTF-8 Plain Text
Title : English_forced
Language : English
Default : No
Forced : No
Menu
00:00:00.000 : en:00:00:00.000
00:09:18.349 : en:00:09:18.349
00:16:43.002 : en:00:16:43.002
00:24:22.378 : en:00:24:22.378
00:30:27.701 : en:00:30:27.701
00:38:47.700 : en:00:38:47.700
00:46:50.933 : en:00:46:50.933
00:54:04.700 : en:00:54:04.700
01:01:39.279 : en:01:01:39.279
01:11:43.925 : en:01:11:43.925
01:23:50.567 : en:01:23:50.567
01:35:58.044 : en:01:35:58.044
Оригинальный размер Локализованных постеров Скриншот с названием фильма Скриншоты
Скачать

Скачать торрент!

Как скачивать? · Что такое торрент? · Рейтинг и ограничения

Сайт не распространяет и не хранит электронные версии произведений, а лишь предоставляет доступ к создаваемому пользователями каталогу ссылок на торрент-файлы, которые содержат только списки хеш-сумм

[Профиль] [ЛС]
Показать сообщения:    
Ответить на тему

Текущее время: Сегодня 03:08

Часовой пояс: GMT + 4



Вы не можете начинать темы
Вы не можете отвечать на сообщения
Вы не можете редактировать свои сообщения
Вы не можете удалять свои сообщения
Вы не можете голосовать в опросах
Вы не можете прикреплять файлы к сообщениям
Вы не можете скачивать файлы