Матрица: Трилогия / The Matrix: Trilogy (Энди Вачовски / Andy Wachowski, Ларри Вачовски / Larry Wachowski) [1999, 2003 г., США, Австралия, Фантастика, боевик, BDRip 720p] Dub (Blu-Ray CEE) + MVO + DVO + AVO + Original + Rus / Eng Subs

Ответить на тему
 
Автор Сообщение

user ®

Стаж: 7 лет 7 месяцев

Сообщений: 20008

Пост Пост: #1 от 11-Янв-2015 21:27

[Цитировать]

Матрица: Трилогия / The Matrix: Trilogy- -Матрица / The Matrix«Добро пожаловать в реальный мир» Год выпуска: 1999
Страна: США, Австралия
Жанр: фантастика, боевик, приключения
Продолжительность: 02:16:18-Перевод 1: Профессиональный дублированный (Blu-Ray CEE)
Перевод 2: Профессиональный многоголосый закадровый
Перевод 3: Профессиональный многоголосый закадровый (НТВ/РТР)
Перевод 4: Профессиональный двухголосый закадровый (Пётр Гланц и Инна Королёва)
Перевод 5: Авторский одноголосый закадровый (диктор CDV)
Перевод 6: Авторский одноголосый закадровый (Андрей Гаврилов)
Перевод 7: Авторский одноголосый закадровый (Юрий Живов)
Перевод 8: Авторский одноголосый закадровый (Дмитрий Пучков)
Перевод 9: Авторский одноголосый закадровый (Дмитрий Пучков "Божья Искра")
Перевод 10: Авторский одноголосый закадровый (Александр Кашкин)
Перевод 11: Авторский одноголосый закадровый (Андрей Дольский "поздний")
Перевод 12: Авторский одноголосый закадровый (Андрей Дольский "ранний")
Субтитры: русские, английские
Оригинальная аудиодорожка: английский-Режиссер: Энди Вачовски / Andy Wachowski, Ларри Вачовски / Larry Wachowski
В ролях: Киану Ривз, Лоренс Фишбёрн, Кэрри-Энн Мосс, Хьюго Уивинг, Глория Фостер, Джо Пантольяно, Маркус Чонг, Джулиан Араханга, Мэтт Доран, Белинда МакКлори-
Бюджет: $63 000 000
Сборы в мире: $463 517 383-Описание: Мир Матрицы - это иллюзия, существующая только в бесконечном сне обреченного человечества. Холодный мир будущего, в котором люди - всего лишь батарейки в компьютерных системах.-Сэмпл: http://sendfile.su/1070711
Качество: BDRip 720p
Контейнер: MKV
Видео: 1280x532, 23.976 fps, x264@L4.1, 6981 kbps
Аудио 1: Русский 48 kHz, AC3 3.2, 640 kbps |Дубляж, Blu-Ray CEE|
Аудио 2: Русский 48 kHz, DTS 5.1, 1509 kbps |Многоголосый закадровый|
Аудио 3: Русский 48 kHz, AC3 2.0, 192 kbps |Многоголосый закадровый, НТВ/РТР|
Аудио 4: Русский 48 kHz, DTS 5.1, 1509 kbps |Двухголосый закадровый, П. Гланц и И. Королёва|
Аудио 5: Русский 48 kHz, DTS 5.1, 1509 kbps |Одноголосый закадровый, диктор CDV|
Аудио 6: Русский 48 kHz, DTS 5.1, 1509 kbps |Одноголосый закадровый, А. Гаврилов|
Аудио 7: Русский 48 kHz, DTS 5.1, 1509 kbps |Одноголосый закадровый, Ю. Живов|
Аудио 8: Русский 48 kHz, DTS 5.1, 1509 kbps |Одноголосый закадровый, Д. Пучков|
Аудио 9: Русский 48 kHz, AC3 3.2, 448 kbps |Одноголосый закадровый, Д. Пучков (Божья искра)|
Аудио 10: Русский 48 kHz, AC3 2.0, 448 kbps |Одноголосый закадровый, А. Кашкин|
Аудио 11: Русский 48 kHz, AC3 2.0, 192 kbps |Одноголосый закадровый, А. Дольский (поздний)|
Аудио 12: Русский 48 kHz, AC3 1.0, 192 kbps |Одноголосый закадровый, А. Дольский (ранний)|
Аудио 13: Английский 48 kHz, DTS 5.1, 1509 kbps |Original|
Скриншоты MediaInfo
General
Unique ID : 179034352752291776199767782129714722899 (0x86B0C3193ECB8C33B88D91DCE945F853)
Complete name : D:\Downloads\The Matrix Trilogy 720p\The.Matrix.1999.mkv
Format : Matroska
Format version : Version 4 / Version 2
File size : 19.2 GiB
Duration : 2h 17mn
Overall bit rate : 20.1 Mbps
Movie name : The Matrix (1999)
Encoded date : UTC 2015-01-07 13:31:49
Writing application : mkvmerge v7.5.0 ('Glass Culture') 64bit built on Jan 4 2015 16:48:44
Writing library : libebml v1.3.1 + libmatroska v1.4.2
Attachements : cover.jpg
DURATION : 02:15:33.208000000
NUMBER_OF_FRAMES : 1372
NUMBER_OF_BYTES : 40998
_STATISTICS_WRITING_APP : mkvmerge v7.5.0 ('Glass Culture') 64bit built on Jan 4 2015 16:48:44
_STATISTICS_WRITING_DATE_UTC : 2015-01-07 13:31:49
_STATISTICS_TAGS : BPS DURATION NUMBER_OF_FRAMES NUMBER_OF_BYTES
Video
ID : 1
Format : AVC
Format/Info : Advanced Video Codec
Format profile : High@L4.1
Format settings, CABAC : Yes
Format settings, ReFrames : 12 frames
Codec ID : V_MPEG4/ISO/AVC
Duration : 2h 17mn
Bit rate : 6 981 Kbps
Nominal bit rate : 7 500 Kbps
Width : 1 280 pixels
Height : 532 pixels
Display aspect ratio : 2.40:1
Frame rate mode : Constant
Frame rate : 23.976 fps
Color space : YUV
Chroma subsampling : 4:2:0
Bit depth : 8 bits
Scan type : Progressive
Bits/(Pixel*Frame) : 0.428
Stream size : 6.69 GiB (35%)
Writing library : x264 core 122 r2184kMod 5c85e0a
Encoding settings : cabac=1 / ref=12 / deblock=1:-3:-3 / analyse=0x3:0x133 / me=umh / subme=11 / psy=1 / fade_compensate=0.00 / psy_rd=1.00:0.00 / mixed_ref=1 / me_range=32 / chroma_me=1 / trellis=2 / 8x8dct=1 / cqm=0 / deadzone=21,11 / fast_pskip=0 / chroma_qp_offset=-2 / threads=6 / sliced_threads=0 / nr=0 / decimate=0 / interlaced=0 / bluray_compat=0 / constrained_intra=0 / bframes=8 / b_pyramid=2 / b_adapt=2 / b_bias=0 / direct=3 / weightb=1 / open_gop=0 / weightp=2 / keyint=240 / keyint_min=23 / scenecut=40 / intra_refresh=0 / rc=2pass / mbtree=0 / bitrate=7500 / ratetol=1.0 / qcomp=0.70 / qpmin=10 / qpmax=51 / qpstep=4 / cplxblur=20.0 / qblur=0.5 / ip_ratio=1.30 / pb_ratio=1.20 / aq=3:0.60
Language : English
Default : Yes
Forced : No
Audio #1
ID : 2
Format : AC-3
Format/Info : Audio Coding 3
Mode extension : CM (complete main)
Format settings, Endianness : Big
Codec ID : A_AC3
Duration : 2h 17mn
Bit rate mode : Constant
Bit rate : 640 Kbps
Channel(s) : 6 channels
Channel positions : Front: L C R, Side: L R, LFE
Sampling rate : 48.0 KHz
Bit depth : 16 bits
Compression mode : Lossy
Stream size : 628 MiB (3%)
Title : Dub, Blu-ray CEE
Language : Russian
Default : Yes
Forced : No
Audio #2
ID : 3
Format : DTS
Format/Info : Digital Theater Systems
Mode : 16
Format settings, Endianness : Big
Codec ID : A_DTS
Duration : 2h 17mn
Bit rate mode : Constant
Bit rate : 1 509 Kbps
Channel(s) : 6 channels
Channel positions : Front: L C R, Side: L R, LFE
Sampling rate : 48.0 KHz
Bit depth : 16 bits
Compression mode : Lossy
Stream size : 1.45 GiB (8%)
Title : MVO
Language : Russian
Default : No
Forced : No
Audio #3
ID : 4
Format : AC-3
Format/Info : Audio Coding 3
Mode extension : CM (complete main)
Format settings, Endianness : Big
Codec ID : A_AC3
Duration : 2h 17mn
Bit rate mode : Constant
Bit rate : 192 Kbps
Channel(s) : 2 channels
Channel positions : Front: L R
Sampling rate : 48.0 KHz
Bit depth : 16 bits
Compression mode : Lossy
Stream size : 188 MiB (1%)
Title : MVO, НТВ/РТР
Language : Russian
Default : No
Forced : No
Audio #4
ID : 5
Format : DTS
Format/Info : Digital Theater Systems
Mode : 16
Format settings, Endianness : Big
Codec ID : A_DTS
Duration : 2h 17mn
Bit rate mode : Constant
Bit rate : 1 509 Kbps
Channel(s) : 6 channels
Channel positions : Front: L C R, Side: L R, LFE
Sampling rate : 48.0 KHz
Bit depth : 16 bits
Compression mode : Lossy
Stream size : 1.45 GiB (8%)
Title : DVO, Гланц и Королёва
Language : Russian
Default : No
Forced : No
Audio #5
ID : 6
Format : DTS
Format/Info : Digital Theater Systems
Mode : 16
Format settings, Endianness : Big
Codec ID : A_DTS
Duration : 2h 17mn
Bit rate mode : Constant
Bit rate : 1 509 Kbps
Channel(s) : 6 channels
Channel positions : Front: L C R, Side: L R, LFE
Sampling rate : 48.0 KHz
Bit depth : 16 bits
Compression mode : Lossy
Stream size : 1.45 GiB (8%)
Title : VO, диктор CDV
Language : Russian
Default : No
Forced : No
Audio #6
ID : 7
Format : DTS
Format/Info : Digital Theater Systems
Mode : 16
Format settings, Endianness : Big
Codec ID : A_DTS
Duration : 2h 17mn
Bit rate mode : Constant
Bit rate : 1 509 Kbps
Channel(s) : 6 channels
Channel positions : Front: L C R, Side: L R, LFE
Sampling rate : 48.0 KHz
Bit depth : 16 bits
Compression mode : Lossy
Stream size : 1.45 GiB (8%)
Title : VO, Гаврилов
Language : Russian
Default : No
Forced : No
Audio #7
ID : 8
Format : DTS
Format/Info : Digital Theater Systems
Mode : 16
Format settings, Endianness : Big
Codec ID : A_DTS
Duration : 2h 17mn
Bit rate mode : Constant
Bit rate : 1 509 Kbps
Channel(s) : 6 channels
Channel positions : Front: L C R, Side: L R, LFE
Sampling rate : 48.0 KHz
Bit depth : 16 bits
Compression mode : Lossy
Stream size : 1.45 GiB (8%)
Title : VO, Живов
Language : Russian
Default : No
Forced : No
Audio #8
ID : 9
Format : DTS
Format/Info : Digital Theater Systems
Mode : 16
Format settings, Endianness : Big
Codec ID : A_DTS
Duration : 2h 17mn
Bit rate mode : Constant
Bit rate : 1 509 Kbps
Channel(s) : 6 channels
Channel positions : Front: L C R, Side: L R, LFE
Sampling rate : 48.0 KHz
Bit depth : 16 bits
Compression mode : Lossy
Stream size : 1.45 GiB (8%)
Title : VO, Пучков
Language : Russian
Default : No
Forced : No
Audio #9
ID : 10
Format : AC-3
Format/Info : Audio Coding 3
Mode extension : CM (complete main)
Format settings, Endianness : Big
Codec ID : A_AC3
Duration : 2h 17mn
Bit rate mode : Constant
Bit rate : 448 Kbps
Channel(s) : 6 channels
Channel positions : Front: L C R, Side: L R, LFE
Sampling rate : 48.0 KHz
Bit depth : 16 bits
Compression mode : Lossy
Stream size : 439 MiB (2%)
Title : VO, Пучков (Божья искра)
Language : Russian
Default : No
Forced : No
Audio #10
ID : 11
Format : AC-3
Format/Info : Audio Coding 3
Mode extension : CM (complete main)
Format settings, Endianness : Big
Codec ID : A_AC3
Duration : 2h 17mn
Bit rate mode : Constant
Bit rate : 448 Kbps
Channel(s) : 2 channels
Channel positions : Front: L R
Sampling rate : 48.0 KHz
Bit depth : 16 bits
Compression mode : Lossy
Stream size : 439 MiB (2%)
Title : VO, Кашкин
Language : Russian
Default : No
Forced : No
Audio #11
ID : 12
Format : AC-3
Format/Info : Audio Coding 3
Mode extension : CM (complete main)
Format settings, Endianness : Big
Codec ID : A_AC3
Duration : 2h 17mn
Bit rate mode : Constant
Bit rate : 192 Kbps
Channel(s) : 2 channels
Channel positions : Front: L R
Sampling rate : 48.0 KHz
Bit depth : 16 bits
Compression mode : Lossy
Stream size : 188 MiB (1%)
Title : VO, Дольский (New)
Language : Russian
Default : No
Forced : No
Audio #12
ID : 13
Format : AC-3
Format/Info : Audio Coding 3
Mode extension : CM (complete main)
Format settings, Endianness : Big
Codec ID : A_AC3
Duration : 2h 17mn
Bit rate mode : Constant
Bit rate : 192 Kbps
Channel(s) : 1 channel
Channel positions : Front: C
Sampling rate : 48.0 KHz
Bit depth : 16 bits
Compression mode : Lossy
Stream size : 188 MiB (1%)
Title : VO, Дольский (Old)
Language : Russian
Default : No
Forced : No
Audio #13
ID : 14
Format : DTS
Format/Info : Digital Theater Systems
Mode : 16
Format settings, Endianness : Big
Codec ID : A_DTS
Duration : 2h 17mn
Bit rate mode : Constant
Bit rate : 1 509 Kbps
Channel(s) : 6 channels
Channel positions : Front: L C R, Side: L R, LFE
Sampling rate : 48.0 KHz
Bit depth : 16 bits
Compression mode : Lossy
Stream size : 1.45 GiB (8%)
Language : English
Default : No
Forced : No
Text #1
ID : 15
Format : UTF-8
Codec ID : S_TEXT/UTF8
Codec ID/Info : UTF-8 Plain Text
Language : Russian
Default : No
Forced : No
Text #2
ID : 16
Format : UTF-8
Codec ID : S_TEXT/UTF8
Codec ID/Info : UTF-8 Plain Text
Language : Russian
Default : No
Forced : No
Text #3
ID : 17
Format : UTF-8
Codec ID : S_TEXT/UTF8
Codec ID/Info : UTF-8 Plain Text
Language : English
Default : No
Forced : No
Text #4
ID : 18
Format : UTF-8
Codec ID : S_TEXT/UTF8
Codec ID/Info : UTF-8 Plain Text
Title : SDH
Language : English
Default : No
Forced : No
Menu
00:00:00.000 : en:Chapter 1
00:03:25.789 : en:Chapter 2
00:06:35.645 : en:Chapter 3
00:09:42.665 : en:Chapter 4
00:11:58.301 : en:Chapter 5
00:16:47.423 : en:Chapter 6
00:21:33.542 : en:Chapter 7
00:25:08.590 : en:Chapter 8
00:28:51.146 : en:Chapter 9
00:32:25.193 : en:Chapter 10
00:35:21.870 : en:Chapter 11
00:38:40.902 : en:Chapter 12
00:44:22.577 : en:Chapter 13
00:46:33.541 : en:Chapter 14
00:48:57.852 : en:Chapter 15
00:53:31.291 : en:Chapter 16
00:56:32.139 : en:Chapter 17
00:59:01.288 : en:Chapter 18
01:01:08.582 : en:Chapter 19
01:05:16.496 : en:Chapter 20
01:07:46.813 : en:Chapter 21
01:12:33.432 : en:Chapter 22
01:17:49.582 : en:Chapter 23
01:21:03.108 : en:Chapter 24
01:25:05.350 : en:Chapter 25
01:29:45.130 : en:Chapter 26
01:31:27.565 : en:Chapter 27
01:37:25.256 : en:Chapter 28
01:41:04.976 : en:Chapter 29
01:44:20.337 : en:Chapter 30
01:47:00.497 : en:Chapter 31
01:50:18.529 : en:Chapter 32
01:52:56.687 : en:Chapter 33
01:56:36.907 : en:Chapter 34
01:58:49.372 : en:Chapter 35
02:02:27.423 : en:Chapter 36
02:05:41.784 : en:Chapter 37
02:08:46.802 : en:Chapter 38
02:09:30.262 : en:Chapter 39
02:11:20.164 : en:Chapter 40
Матрица: Перезагрузка / The Matrix: Reloaded«Одни машины помогают нам жить, другие – пытаются нас убить»
Год выпуска: 2003
Страна: США, Австралия
Жанр: фантастика, боевик, приключения
Продолжительность: 02:18:15-Перевод 1: Профессиональный дублированный (Blu-Ray CEE)
Перевод 2: Профессиональный двухголосый закадровый
Перевод 3: Профессиональный двухголосый закадровый (Пётр Гланц и Инна Королёва "ранний")
Перевод 4: Профессиональный двухголосый закадровый (Пётр Гланц и Инна Королёва "поздний")
Перевод 5: Авторский одноголосый закадровый (Андрей Гаврилов)
Перевод 6: Авторский одноголосый закадровый (Юрий Живов)
Перевод 7: Авторский одноголосый закадровый (Евгений Рудой)
Субтитры: русские, английские
Оригинальная аудиодорожка: английский-Режиссер: Энди Вачовски / Andy Wachowski, Ларри Вачовски / Larry Wachowski
В ролях: Киану Ривз, Кэрри-Энн Мосс, Лоренс Фишбёрн, Хьюго Уивинг, Моника Беллуччи, Ламбер Вильсон, Энтони Вон, Гарри Дж. Ленникс, Рэндолл Дак Ким, Глория Фостер-
Бюджет: $150 000 000
Сборы в мире: $742 128 461-Описание: Борцы за свободу Нео, Тринити и Морфеус продолжают руководить восстанием людей против Армии Машин. Для уничтожения системы репрессий и эксплуатации они вынуждены прибегнуть не только к арсеналу превосходного оружия, но и к своим выдающимся навыкам.
Участие в миссии по спасению человеческой расы от ее полного истребления приносит им более глубокое понимание конструкции Матрицы и осознание центральной роли Нео в судьбе человечества.-Сэмпл: http://sendfile.su/1070742
Качество: BDRip 720p
Контейнер: MKV
Видео: 1280x532, 23.976 fps, x264@L4.1, 7135 kbps
Аудио 1: Русский 48 kHz, AC3 3.2, 640 kbps |Дубляж, Blu-Ray CEE|
Аудио 2: Русский 48 kHz, DTS 5.1, 1509 kbps |Двухголосый закадровый
Аудио 3: Русский 48 kHz, DTS 5.1, 1509 kbps |Двухголосый закадровый, П. Гланц и И. Королёва (ранний)|
Аудио 4: Русский 48 kHz, DTS 5.1, 1509 kbps |Двухголосый закадровый, П. Гланц и И. Королёва (поздний)|
Аудио 5: Русский 48 kHz, DTS 5.1, 1509 kbps |Одноголосый закадровый, А. Гаврилов|
Аудио 6: Русский 48 kHz, DTS 5.1, 1509 kbps |Одноголосый закадровый, Ю. Живов|
Аудио 7: Русский 48 kHz, DTS 5.1, 1509 kbps |Одноголосый закадровый, Е. Рудой|
Аудио 8: Английский 48 kHz, DTS 5.1, 1509 kbps |Original|
Скриншоты MediaInfo
General
Unique ID : 196449663299563942028050043281511243827 (0x93CAD43388A157678B90480ABC8F6033)
Complete name : D:\Downloads\The Matrix Trilogy 720p\The.Matrix.Reloaded.2003.mkv
Format : Matroska
Format version : Version 4 / Version 2
File size : 18.1 GiB
Duration : 2h 18mn
Overall bit rate : 18.7 Mbps
Movie name : The Matrix Reloaded (2003)
Encoded date : UTC 2015-01-07 13:41:17
Writing application : mkvmerge v7.5.0 ('Glass Culture') 64bit built on Jan 4 2015 16:48:44
Writing library : libebml v1.3.1 + libmatroska v1.4.2
Attachements : cover.jpg
DURATION : 02:16:45.905000000
NUMBER_OF_FRAMES : 1229
NUMBER_OF_BYTES : 47286
_STATISTICS_WRITING_APP : mkvmerge v7.5.0 ('Glass Culture') 64bit built on Jan 4 2015 16:48:44
_STATISTICS_WRITING_DATE_UTC : 2015-01-07 13:41:17
_STATISTICS_TAGS : BPS DURATION NUMBER_OF_FRAMES NUMBER_OF_BYTES
Video
ID : 1
Format : AVC
Format/Info : Advanced Video Codec
Format profile : High@L4.1
Format settings, CABAC : Yes
Format settings, ReFrames : 12 frames
Codec ID : V_MPEG4/ISO/AVC
Duration : 2h 18mn
Bit rate : 7 135 Kbps
Nominal bit rate : 7 500 Kbps
Width : 1 280 pixels
Height : 532 pixels
Display aspect ratio : 2.40:1
Frame rate mode : Constant
Frame rate : 23.976 fps
Color space : YUV
Chroma subsampling : 4:2:0
Bit depth : 8 bits
Scan type : Progressive
Bits/(Pixel*Frame) : 0.437
Stream size : 6.89 GiB (38%)
Writing library : x264 core 122 r2184kMod 5c85e0a
Encoding settings : cabac=1 / ref=12 / deblock=1:-3:-3 / analyse=0x3:0x133 / me=umh / subme=11 / psy=1 / fade_compensate=0.00 / psy_rd=1.00:0.00 / mixed_ref=1 / me_range=32 / chroma_me=1 / trellis=2 / 8x8dct=1 / cqm=0 / deadzone=21,11 / fast_pskip=0 / chroma_qp_offset=-2 / threads=6 / sliced_threads=0 / nr=0 / decimate=0 / interlaced=0 / bluray_compat=0 / constrained_intra=0 / bframes=8 / b_pyramid=2 / b_adapt=2 / b_bias=0 / direct=3 / weightb=1 / open_gop=0 / weightp=2 / keyint=240 / keyint_min=23 / scenecut=40 / intra_refresh=0 / rc=2pass / mbtree=0 / bitrate=7500 / ratetol=1.0 / qcomp=0.70 / qpmin=10 / qpmax=51 / qpstep=4 / cplxblur=20.0 / qblur=0.5 / ip_ratio=1.30 / pb_ratio=1.20 / aq=3:0.60
Language : English
Default : Yes
Forced : No
Audio #1
ID : 2
Format : AC-3
Format/Info : Audio Coding 3
Mode extension : CM (complete main)
Format settings, Endianness : Big
Codec ID : A_AC3
Duration : 2h 18mn
Bit rate mode : Constant
Bit rate : 640 Kbps
Channel(s) : 6 channels
Channel positions : Front: L C R, Side: L R, LFE
Sampling rate : 48.0 KHz
Bit depth : 16 bits
Compression mode : Lossy
Stream size : 633 MiB (3%)
Title : Dub, Blu-ray CEE
Language : Russian
Default : Yes
Forced : No
Audio #2
ID : 3
Format : DTS
Format/Info : Digital Theater Systems
Mode : 16
Format settings, Endianness : Big
Codec ID : A_DTS
Duration : 2h 18mn
Bit rate mode : Constant
Bit rate : 1 509 Kbps
Channel(s) : 6 channels
Channel positions : Front: L C R, Side: L R, LFE
Sampling rate : 48.0 KHz
Bit depth : 16 bits
Compression mode : Lossy
Stream size : 1.46 GiB (8%)
Title : DVO
Language : Russian
Default : No
Forced : No
Audio #3
ID : 4
Format : DTS
Format/Info : Digital Theater Systems
Mode : 16
Format settings, Endianness : Big
Codec ID : A_DTS
Duration : 2h 18mn
Bit rate mode : Constant
Bit rate : 1 509 Kbps
Channel(s) : 6 channels
Channel positions : Front: L C R, Side: L R, LFE
Sampling rate : 48.0 KHz
Bit depth : 16 bits
Compression mode : Lossy
Stream size : 1.46 GiB (8%)
Title : DVO, Гланц и Королёва (Old)
Language : Russian
Default : No
Forced : No
Audio #4
ID : 5
Format : DTS
Format/Info : Digital Theater Systems
Mode : 16
Format settings, Endianness : Big
Codec ID : A_DTS
Duration : 2h 18mn
Bit rate mode : Constant
Bit rate : 1 509 Kbps
Channel(s) : 6 channels
Channel positions : Front: L C R, Side: L R, LFE
Sampling rate : 48.0 KHz
Bit depth : 16 bits
Compression mode : Lossy
Stream size : 1.46 GiB (8%)
Title : DVO, Гланц и Королёва (New)
Language : Russian
Default : No
Forced : No
Audio #5
ID : 6
Format : DTS
Format/Info : Digital Theater Systems
Mode : 16
Format settings, Endianness : Big
Codec ID : A_DTS
Duration : 2h 18mn
Bit rate mode : Constant
Bit rate : 1 509 Kbps
Channel(s) : 6 channels
Channel positions : Front: L C R, Side: L R, LFE
Sampling rate : 48.0 KHz
Bit depth : 16 bits
Compression mode : Lossy
Stream size : 1.46 GiB (8%)
Title : VO, Гаврилов
Language : Russian
Default : No
Forced : No
Audio #6
ID : 7
Format : DTS
Format/Info : Digital Theater Systems
Mode : 16
Format settings, Endianness : Big
Codec ID : A_DTS
Duration : 2h 18mn
Bit rate mode : Constant
Bit rate : 1 509 Kbps
Channel(s) : 6 channels
Channel positions : Front: L C R, Side: L R, LFE
Sampling rate : 48.0 KHz
Bit depth : 16 bits
Compression mode : Lossy
Stream size : 1.46 GiB (8%)
Title : VO, Живов
Language : Russian
Default : No
Forced : No
Audio #7
ID : 8
Format : DTS
Format/Info : Digital Theater Systems
Mode : 16
Format settings, Endianness : Big
Codec ID : A_DTS
Duration : 2h 18mn
Bit rate mode : Constant
Bit rate : 1 509 Kbps
Channel(s) : 6 channels
Channel positions : Front: L C R, Side: L R, LFE
Sampling rate : 48.0 KHz
Bit depth : 16 bits
Compression mode : Lossy
Stream size : 1.46 GiB (8%)
Title : VO, Рудой
Language : Russian
Default : No
Forced : No
Audio #8
ID : 9
Format : DTS
Format/Info : Digital Theater Systems
Mode : 16
Format settings, Endianness : Big
Codec ID : A_DTS
Duration : 2h 18mn
Bit rate mode : Constant
Bit rate : 1 509 Kbps
Channel(s) : 6 channels
Channel positions : Front: L C R, Side: L R, LFE
Sampling rate : 48.0 KHz
Bit depth : 16 bits
Compression mode : Lossy
Stream size : 1.46 GiB (8%)
Language : English
Default : No
Forced : No
Text #1
ID : 10
Format : UTF-8
Codec ID : S_TEXT/UTF8
Codec ID/Info : UTF-8 Plain Text
Language : Russian
Default : No
Forced : No
Text #2
ID : 11
Format : UTF-8
Codec ID : S_TEXT/UTF8
Codec ID/Info : UTF-8 Plain Text
Language : English
Default : No
Forced : No
Text #3
ID : 12
Format : UTF-8
Codec ID : S_TEXT/UTF8
Codec ID/Info : UTF-8 Plain Text
Title : SDH
Language : English
Default : No
Forced : No
Menu
00:00:00.000 : en:Trinity's In
00:03:50.230 : en:Trust Me
00:08:55.368 : en:Upgrades
00:12:16.903 : en:Zion
00:16:24.317 : en:Matter of Time
00:19:43.182 : en:Homecomings
00:23:29.408 : en:We Are Still Here
00:27:26.812 : en:Celebrating Humanity
00:32:01.253 : en:Smith Will Suffice
00:33:43.188 : en:What Is Control?
00:37:57.442 : en:Summoned
00:40:55.620 : en:Seraph
00:43:44.956 : en:The Oracle
00:50:42.706 : en:Swarm of Smiths
00:55:08.472 : en:Sticking It to Them
01:00:03.099 : en:The Volunteer
01:02:49.766 : en:Taste of Merovingian
01:08:52.295 : en:Persephone's Kiss
01:13:06.882 : en:Unlocking the Keymaker
01:16:21.410 : en:Blade Leapers
01:20:31.827 : en:Twin Trouble
01:22:47.129 : en:Freeway Entrance
01:26:12.501 : en:Cross-Vehicular Traffic
01:29:52.887 : en:Biker Girl
01:32:50.899 : en:Trucks Amuck
01:37:10.825 : en:The Reason We're Here
01:40:51.379 : en:Sacrifice and Sabotage
01:44:57.791 : en:So Many of Me
01:48:12.152 : en:The Architect
01:52:25.572 : en:The One's Function
01:55:42.936 : en:Neo's Choice
01:57:37.550 : en:Not Letting Go
02:01:51.471 : en:Bomb's Target
02:04:18.451 : en:Feeling the Enemy
02:07:04.116 : en:End Credits (Calm Like a Bomb, Reload, Sleeping Awake, Session, When the World Ends (Oakenfold Remix))
02:16:29.681 : en:The Matrix Revolutions Trailer
Матрица: Революция / The Matrix: Revolutions«Все, что имеет начало, имеет и конец»
Год выпуска: 2003
Страна: США, Австралия
Жанр: фантастика, боевик, приключения
Продолжительность: 02:09:16-Перевод 1: Профессиональный дублированный (Blu-Ray CEE)
Перевод 2: Профессиональный многоголосый закадровый
Перевод 3: Профессиональный двухголосый закадровый (Пётр Гланц и Инна Королёва)
Перевод 4: Авторский одноголосый закадровый (Андрей Гаврилов)
Перевод 5: Авторский одноголосый закадровый (Юрий Живов)
Субтитры: русские, английские
Оригинальная аудиодорожка: английский-Режиссер: Энди Вачовски / Andy Wachowski, Ларри Вачовски / Larry Wachowski
В ролях: Киану Ривз, Кэрри-Энн Мосс, Лоренс Фишбёрн, Хьюго Уивинг, Моника Беллуччи, Брюс Спенс, Джада Пинкетт Смит, Хэролд Перрино, Гарри Дж. Ленникс, Хельмут Бакайтис-
Бюджет: $150 000 000
Сборы в мире: $427 343 298-Описание: Пока армия Машин пытается уничтожить Зион, его жители из последних сил держат оборону. Но удастся ли им предотвратить полное вторжение в город кишащей орды беспощадных машин до того, как Нео соберет все свои силы и положит конец войне?-Сэмпл: http://sendfile.su/1070751
Качество: BDRip 720p
Контейнер: MKV
Видео: 1280x532, 23.976 fps, x264@L4.1, 7500 kbps
Аудио 1: Русский 48 kHz, AC3 3.2, 640 kbps |Дубляж, Blu-Ray CEE|
Аудио 2: Русский 48 kHz, DTS 5.1, 1509 kbps |Многоголосый закадровый|
Аудио 3: Русский 48 kHz, DTS 5.1, 1509 kbps |Двухголосый закадровый, П. Гланц и И. Королёва|
Аудио 4: Русский 48 kHz, DTS 5.1, 1509 kbps |Одноголосый закадровый, А. Гаврилов|
Аудио 5: Русский 48 kHz, DTS 5.1, 1509 kbps |Одноголосый закадровый, Ю. Живов|
Аудио 6: Английский 48 kHz, DTS 5.1, 1509 kbps |Original|
Скриншоты MediaInfo
General
Unique ID : 179305852400244957291364522179781681867 (0x86E50D1092F964308EB68645356F62CB)
Complete name : D:\Downloads\The Matrix Trilogy 720p\The.Matrix.Revolutions.2003.mkv
Format : Matroska
Format version : Version 4 / Version 2
File size : 14.2 GiB
Duration : 2h 9mn
Overall bit rate : 15.7 Mbps
Movie name : The Matrix
Encoded date : UTC 2015-01-07 13:50:17
Writing application : mkvmerge v7.5.0 ('Glass Culture') 64bit built on Jan 4 2015 16:48:44
Writing library : libebml v1.3.1 + libmatroska v1.4.2
Attachements : cover.jpg
DURATION : 02:07:54.332000000
NUMBER_OF_FRAMES : 1110
NUMBER_OF_BYTES : 38362
_STATISTICS_WRITING_APP : mkvmerge v7.5.0 ('Glass Culture') 64bit built on Jan 4 2015 16:48:44
_STATISTICS_WRITING_DATE_UTC : 2015-01-07 13:50:17
_STATISTICS_TAGS : BPS DURATION NUMBER_OF_FRAMES NUMBER_OF_BYTES
Video
ID : 1
Format : AVC
Format/Info : Advanced Video Codec
Format profile : High@L4.1
Format settings, CABAC : Yes
Format settings, ReFrames : 12 frames
Codec ID : V_MPEG4/ISO/AVC
Duration : 2h 9mn
Bit rate : 7 500 Kbps
Width : 1 280 pixels
Height : 532 pixels
Display aspect ratio : 2.40:1
Frame rate mode : Constant
Frame rate : 23.976 fps
Color space : YUV
Chroma subsampling : 4:2:0
Bit depth : 8 bits
Scan type : Progressive
Bits/(Pixel*Frame) : 0.459
Stream size : 6.49 GiB (46%)
Writing library : x264 core 122 r2184kMod 5c85e0a
Encoding settings : cabac=1 / ref=12 / deblock=1:-3:-3 / analyse=0x3:0x133 / me=umh / subme=11 / psy=1 / fade_compensate=0.00 / psy_rd=1.00:0.00 / mixed_ref=1 / me_range=32 / chroma_me=1 / trellis=2 / 8x8dct=1 / cqm=0 / deadzone=21,11 / fast_pskip=0 / chroma_qp_offset=-2 / threads=6 / sliced_threads=0 / nr=0 / decimate=0 / interlaced=0 / bluray_compat=0 / constrained_intra=0 / bframes=8 / b_pyramid=2 / b_adapt=2 / b_bias=0 / direct=3 / weightb=1 / open_gop=0 / weightp=2 / keyint=240 / keyint_min=23 / scenecut=40 / intra_refresh=0 / rc=2pass / mbtree=0 / bitrate=7500 / ratetol=1.0 / qcomp=0.70 / qpmin=10 / qpmax=51 / qpstep=4 / cplxblur=20.0 / qblur=0.5 / ip_ratio=1.30 / pb_ratio=1.20 / aq=3:0.60
Language : English
Default : Yes
Forced : No
Audio #1
ID : 2
Format : AC-3
Format/Info : Audio Coding 3
Mode extension : CM (complete main)
Format settings, Endianness : Big
Codec ID : A_AC3
Duration : 2h 9mn
Bit rate mode : Constant
Bit rate : 640 Kbps
Channel(s) : 6 channels
Channel positions : Front: L C R, Side: L R, LFE
Sampling rate : 48.0 KHz
Bit depth : 16 bits
Compression mode : Lossy
Stream size : 592 MiB (4%)
Title : Dub, Blu-ray CEE
Language : Russian
Default : Yes
Forced : No
Audio #2
ID : 3
Format : DTS
Format/Info : Digital Theater Systems
Mode : 16
Format settings, Endianness : Big
Codec ID : A_DTS
Duration : 2h 9mn
Bit rate mode : Constant
Bit rate : 1 509 Kbps
Channel(s) : 6 channels
Channel positions : Front: L C R, Side: L R, LFE
Sampling rate : 48.0 KHz
Bit depth : 16 bits
Compression mode : Lossy
Stream size : 1.36 GiB (10%)
Title : MVO
Language : Russian
Default : No
Forced : No
Audio #3
ID : 4
Format : DTS
Format/Info : Digital Theater Systems
Mode : 16
Format settings, Endianness : Big
Codec ID : A_DTS
Duration : 2h 9mn
Bit rate mode : Constant
Bit rate : 1 509 Kbps
Channel(s) : 6 channels
Channel positions : Front: L C R, Side: L R, LFE
Sampling rate : 48.0 KHz
Bit depth : 16 bits
Compression mode : Lossy
Stream size : 1.36 GiB (10%)
Title : DVO, Гланц и Королёва
Language : Russian
Default : No
Forced : No
Audio #4
ID : 5
Format : DTS
Format/Info : Digital Theater Systems
Mode : 16
Format settings, Endianness : Big
Codec ID : A_DTS
Duration : 2h 9mn
Bit rate mode : Constant
Bit rate : 1 509 Kbps
Channel(s) : 6 channels
Channel positions : Front: L C R, Side: L R, LFE
Sampling rate : 48.0 KHz
Bit depth : 16 bits
Compression mode : Lossy
Stream size : 1.36 GiB (10%)
Title : VO, Гаврилов
Language : Russian
Default : No
Forced : No
Audio #5
ID : 6
Format : DTS
Format/Info : Digital Theater Systems
Mode : 16
Format settings, Endianness : Big
Codec ID : A_DTS
Duration : 2h 9mn
Bit rate mode : Constant
Bit rate : 1 509 Kbps
Channel(s) : 6 channels
Channel positions : Front: L C R, Side: L R, LFE
Sampling rate : 48.0 KHz
Bit depth : 16 bits
Compression mode : Lossy
Stream size : 1.36 GiB (10%)
Title : VO, Живов
Language : Russian
Default : No
Forced : No
Audio #6
ID : 7
Format : DTS
Format/Info : Digital Theater Systems
Mode : 16
Format settings, Endianness : Big
Codec ID : A_DTS
Duration : 2h 9mn
Bit rate mode : Constant
Bit rate : 1 509 Kbps
Channel(s) : 6 channels
Channel positions : Front: L C R, Side: L R, LFE
Sampling rate : 48.0 KHz
Bit depth : 16 bits
Compression mode : Lossy
Stream size : 1.36 GiB (10%)
Language : English
Default : No
Forced : No
Text #1
ID : 8
Format : UTF-8
Codec ID : S_TEXT/UTF8
Codec ID/Info : UTF-8 Plain Text
Language : Russian
Default : No
Forced : No
Text #2
ID : 9
Format : UTF-8
Codec ID : S_TEXT/UTF8
Codec ID/Info : UTF-8 Plain Text
Language : English
Default : No
Forced : No
Text #3
ID : 10
Format : UTF-8
Codec ID : S_TEXT/UTF8
Codec ID/Info : UTF-8 Plain Text
Title : SDH
Language : English
Default : No
Forced : No
Menu
00:00:00.000 : en:20 Hours to Go
00:03:55.402 : en:Trapped
00:07:33.119 : en:The Connection Matters
00:10:19.953 : en:Down Here I'm God
00:14:44.383 : en:Coat-Check Chaos
00:17:58.744 : en:Interesting Deal
00:23:33.245 : en:The End Is Coming
00:30:06.304 : en:We Meet at Last
00:35:35.633 : en:The Logos Found
00:39:34.205 : en:Volunteers
00:42:58.910 : en:I Believe in Him
00:46:43.300 : en:Nothing's Changed
00:49:02.606 : en:Stowaway
00:51:53.610 : en:See Your Enemy
00:58:00.644 : en:Give 'em Hell
01:00:19.115 : en:Detected
01:02:29.746 : en:Breaching the Dome
01:08:00.910 : en:Storming Sentinels
01:10:29.225 : en:Trying to Keep Up
01:14:33.803 : en:Unfinished Business
01:18:23.365 : en:Hell of a Pilot
01:23:08.984 : en:Report to the Council
01:25:55.817 : en:Believers
01:29:13.348 : en:Glimpse of the Sky
01:31:51.673 : en:Saying What Matters
01:36:51.472 : en:A Truce
01:41:55.276 : en:It Ends Tonight
01:44:53.120 : en:Urban Splash
01:48:06.647 : en:Neo's Choice
01:51:30.851 : en:Inevitable and Over
01:55:05.899 : en:Real Peace
01:57:31.211 : en:Freedom and Sunlight
02:00:12.372 : en:End Credits
Скачать

Скачать торрент!

Как скачивать? · Что такое торрент? · Рейтинг и ограничения

Сайт не распространяет и не хранит электронные версии произведений, а лишь предоставляет доступ к создаваемому пользователями каталогу ссылок на торрент-файлы, которые содержат только списки хеш-сумм

[Профиль] [ЛС]
Показать сообщения:    
Ответить на тему

Текущее время: Сегодня 10:52

Часовой пояс: GMT + 4



Вы не можете начинать темы
Вы не можете отвечать на сообщения
Вы не можете редактировать свои сообщения
Вы не можете удалять свои сообщения
Вы не можете голосовать в опросах
Вы не можете прикреплять файлы к сообщениям
Вы не можете скачивать файлы