Месть - дело прибыльное / Месть на продажу / Vengeance for Sale / Sukedachi-ya Sukeroku (Кихачи Окамото / Kihachi Okamoto) [2001, Япония, комедия, DVDRip] VO [DeMon]

Ответить на тему
 
Автор Сообщение

user ®

Стаж: 13 лет

Сообщений: 15071

Пост Пост: #1 от 11-Янв-2015 18:21

[Цитировать]

Месть - дело прибыльное / Месть на продажу / Vengeance for Sale / Sukedachi-ya Sukeroku- -Страна: Япония
Жанр: комедия
Год выпуска: 2001
Продолжительность: 01:27:48-Перевод: Одноголосый закадровый-Cубтитры: нет
Оригинальная аудиодорожка: нет
Режиссер: Кихачи Окамото / Kihachi Okamoto
В ролях: Хироюки Санада, Кёка Судзуки, Такэхиро Мурата, Тацуя Накадаи, Синго Цуруми, Хиротаро Хонда, Кёко Кисида, Кэйдзю Кобаяси, Иттоку Кисибэ, Тору Кадзама...
Описание: Сукэроку – забавный и добродушный герой этого фильма, который считает себя странствующим якудзой. Правда, он ненавидит оружие и кровь, и меч, который он никогда не вынимает из ножен, совершенно заржавел без дела. Парадоксально, но на жизнь Сукэроку зарабатывает тем, что помогает родственникам жертв отомстить убийцам их близких, и делает это виртуозно избегая кровопролития. Однажды он получает особенно щедрую награду за труды, и решает вернуться в родные края, жениться и остепениться. Однако оказалось, что и в безмятежной родной деревушке назревает кровная месть, и Сукэроку снова придётся с головой окунуться в драматические события. Причём на этот раз, неведомо для него, они будут иметь к нему прямое отношение...
Релиз от -
Сэмпл: http://multi-up.com/1025819
Качество видео: DVDRip
Формат видео: AVI
Видео: MPEG-4 Visual at 1052 Кбит/сек; 688 x 384 (1.792) at 23.976 fps
Аудио: MPEG Audio at 128 Кбит/сек; 2 канала, 48,0 КГц
Автор -
MediaInfo
Общее
Полное имя : D:\Фильмы\Азиатские\Месть - дело прибыльное\Vengeance for Sale.2001.DVDRip.XviD.745MB. rip by [Assassin's Creed].avi
Формат : AVI
Формат/Информация : Audio Video Interleave
Размер файла : 748 Мбайт
Продолжительность : 1 ч. 27 м.
Общий поток : 1189 Кбит/сек
Программа кодирования : VirtualDubMod 1.5.10.3 | www.virtualdub-fr.org || (build 2550/release)
Библиотека кодирования : VirtualDubMod build 2550/release
Видео
Идентификатор : 0
Формат : MPEG-4 Visual
Профиль формата : Advanced Simple@L5
Параметр BVOP формата : 1
Параметр QPel формата : Нет
Параметр GMC формата : Без точки перехода
Параметр матрицы формата : Default (MPEG)
Идентификатор кодека : XVID
Идентификатор кодека/Подсказка : XviD
Продолжительность : 1 ч. 27 м.
Битрейт : 1052 Кбит/сек
Ширина : 688 пикселей
Высота : 384 пикселя
Соотношение сторон : 16:9
Частота кадров : 23,976 кадра/сек
Цветовое пространство : YUV
Субдискретизация насыщенности : 4:2:0
Битовая глубина : 8 бит
Тип развёртки : Прогрессивная
Метод сжатия : С потерями
Бит/(Пиксели*Кадры) : 0.166
Размер потока : 661 Мбайт (88%)
Библиотека кодирования : XviD 1.2.1 (UTC 2008-12-04)
Аудио
Идентификатор : 1
Формат : MPEG Audio
Версия формата : Version 1
Профиль формата : Layer 3
Идентификатор кодека : 55
Идентификатор кодека/Подсказка : MP3
Продолжительность : 1 ч. 27 м.
Вид битрейта : Постоянный
Битрейт : 128 Кбит/сек
Каналы : 2 канала
Частота : 48,0 КГц
Метод сжатия : С потерями
Размер потока : 80,5 Мбайт (11%)
Выравнивание : Соединение по промежуткам
Продолжительность промежутка : 42 мс. (1,00 видеокадр)
Время предзагрузки промежутка : 504 мс.
Библиотека кодирования : LAME3.99r
Настройки программы : -m s -V 4 -q 2 -lowpass 17 -b 128
Скриншот c названием фильма Скриншоты
Скачать

Скачать торрент! Месть - дело прибыльное / Месть на продажу / Vengeance for Sale / Sukedachi-ya Sukeroku (Кихачи Окамото / Kihachi Okamoto) [2001, Япония, комедия, DVDRip] VO [DeMon]

Как скачивать? · Что такое торрент? · Рейтинг и ограничения

Сайт не распространяет и не хранит электронные версии произведений, а лишь предоставляет доступ к создаваемому пользователями каталогу ссылок на торрент-файлы, которые содержат только списки хеш-сумм

[Профиль] [ЛС]
Показать сообщения:    
Ответить на тему

Текущее время: Сегодня 16:17

Часовой пояс: GMT + 4



Вы не можете начинать темы
Вы не можете отвечать на сообщения
Вы не можете редактировать свои сообщения
Вы не можете удалять свои сообщения
Вы не можете голосовать в опросах
Вы не можете прикреплять файлы к сообщениям
Вы не можете скачивать файлы