Захватчик 33D / Грудастая гостья из будущего / 33D Invader / Mi Tao Cheng Shu Shi 33D (Мэн Кеи Чин / Man Kei Chin) [2011, Гонконг, Китай, для взрослых, фантастика, комедия, DVDRip] VO [Jet]

Ответить на тему
 
Автор Сообщение

user ®

Стаж: 13 лет

Сообщений: 15071

Пост Пост: #1 от 11-Янв-2015 18:21

[Цитировать]

Захватчик 33D / Грудастая гостья из будущего / 33D Invader / Mi Tao Cheng Shu Shi 33D- -Страна: Гонконг, Китай
Жанр: для взрослых, фантастика, комедия
Год выпуска: 2011
Продолжительность: 01:22:15-Перевод: Одноголосый закадровый [Jet]-Cубтитры: нет
Оригинальная аудиодорожка: нет
Режиссер: Мэн Кеи Чин / Man Kei Chin
В ролях: У Цин-Цин, Акихо Ёсидзава, Така Като, Цзюнь-Янь Чэнь...
Описание: В скором будущем Земля подвергнется атаке инопланетных монстров, которые заразят человечество, почти полностью лишив его способности к оплодотворению. В 2046 году единственная здоровая девушка Земли отправляется в прошлое, в Гонконг 2011 года, чтобы найти здорового мужчину, который сможет оплодотворить ее. Таковой находится сразу же, но вот беда — у него уже есть девушка Джина, которую он любит. А по следам гостьи из будущего уже идут инопланетные монстры.
Релиз от -
Сэмпл: http://multi-up.com/1025880
Качество видео: DVDRip
Формат видео: AVI
Видео: MPEG-4 Visual at 1132 Кбит/сек; 688 x 288 (2.389) at 23.976 fps
Аудио: MPEG Audio at 128 Кбит/сек; 2 канала, 48,0 КГц
Автор -
MediaInfo
Общее
Полное имя : D:\Фильмы\Азиатские\Грудастая гостья из будущего\33D Invader.2011.DVDRip.XviD.745MB. rip by [Assassin's Creed].avi
Формат : AVI
Формат/Информация : Audio Video Interleave
Размер файла : 747 Мбайт
Продолжительность : 1 ч. 22 м.
Общий поток : 1269 Кбит/сек
Программа кодирования : VirtualDubMod 1.5.10.3 | www.virtualdub-fr.org || (build 2550/release)
Библиотека кодирования : VirtualDubMod build 2550/release
Видео
Идентификатор : 0
Формат : MPEG-4 Visual
Профиль формата : Advanced Simple@L5
Параметр BVOP формата : 1
Параметр QPel формата : Нет
Параметр GMC формата : Без точки перехода
Параметр матрицы формата : Default (MPEG)
Идентификатор кодека : XVID
Идентификатор кодека/Подсказка : XviD
Продолжительность : 1 ч. 22 м.
Битрейт : 1132 Кбит/сек
Ширина : 688 пикселей
Высота : 288 пикселей
Соотношение сторон : 2,40:1
Частота кадров : 23,976 кадра/сек
Цветовое пространство : YUV
Субдискретизация насыщенности : 4:2:0
Битовая глубина : 8 бит
Тип развёртки : Прогрессивная
Метод сжатия : С потерями
Бит/(Пиксели*Кадры) : 0.238
Размер потока : 666 Мбайт (89%)
Библиотека кодирования : XviD 1.2.1 (UTC 2008-12-04)
Аудио
Идентификатор : 1
Формат : MPEG Audio
Версия формата : Version 1
Профиль формата : Layer 3
Идентификатор кодека : 55
Идентификатор кодека/Подсказка : MP3
Продолжительность : 1 ч. 22 м.
Вид битрейта : Постоянный
Битрейт : 128 Кбит/сек
Каналы : 2 канала
Частота : 48,0 КГц
Метод сжатия : С потерями
Размер потока : 75,3 Мбайт (10%)
Выравнивание : Соединение по промежуткам
Продолжительность промежутка : 42 мс. (1,00 видеокадр)
Время предзагрузки промежутка : 504 мс.
Библиотека кодирования : LAME3.99r
Настройки программы : -m s -V 4 -q 2 -lowpass 17 -b 128
Скриншот c названием фильма Скриншоты
Скачать

Скачать торрент! Захватчик 33D / Грудастая гостья из будущего / 33D Invader / Mi Tao Cheng Shu Shi 33D (Мэн Кеи Чин / Man Kei Chin) [2011, Гонконг, Китай, для взрослых, фантастика, комедия, DVDRip] VO [Jet]

Как скачивать? · Что такое торрент? · Рейтинг и ограничения

Сайт не распространяет и не хранит электронные версии произведений, а лишь предоставляет доступ к создаваемому пользователями каталогу ссылок на торрент-файлы, которые содержат только списки хеш-сумм

[Профиль] [ЛС]
Показать сообщения:    
Ответить на тему

Текущее время: Сегодня 17:01

Часовой пояс: GMT + 4



Вы не можете начинать темы
Вы не можете отвечать на сообщения
Вы не можете редактировать свои сообщения
Вы не можете удалять свои сообщения
Вы не можете голосовать в опросах
Вы не можете прикреплять файлы к сообщениям
Вы не можете скачивать файлы