ПиКей / Ал-Каш / PK (Раджкумар Хирани / Rajkumar Hirani) [2014, Индия, Фэнтези, драма, мелодрама, комедия, детектив, DVDRip] Sub Rus (Honey&Haseena) + Original (hindi)

Ответить на тему
 
Автор Сообщение

user ®

Стаж: 12 лет

Сообщений: 15092

Пост Пост: #1 от 11-Янв-2015 18:21

[Цитировать]

ПиКей / PK***Он чувствует себя не в своей тарелке*** - Страна: Индия
Жанр: Фэнтези, драма, мелодрама, комедия, детектив
Год выпуска: 2014
Продолжительность: 02:32:18-Язык: Хинди
Перевод: Субтитры
Cубтитры: русские Honey&Haseena--Режиссер: Раджкумар Хирани / Rajkumar Hirani-В ролях: Аамир Кхан, Анушка Шарма, Санджай Датт, Боман Ирани, Саурабх Шукла, Сушант Сингх Раджпут, Парикшит Сахни, Амардип Джа, Рима Дебнатх, Диру Дривэди--Описание: ПиКей, что в переводе означает «пьяный» - прозвище, которое получил инопланетянин, прилетевший на нашу Землю, чтобы её исследовать. На его планете – никто не врёт, но на нашей - дела обстоят иначе. В первый же день, у него крадут пульт управления, который был единственным связывающим звеном между ним и его родной планетой. Отчаявшийся в поисках пришелец, взывает к Богу и просит помочь ему вернуться домой. Но так и не получив ответа, он решает, что не был услышан своим Создателем и уже пора самому отправиться к нему. Весьма необычное поведение для землянина замечает телерепортёр Джаггу. Узнав его историю, девушка решается помочь бедолаге, тем более, что за время пребывания на Земле, он не только успел изменить убеждения и взгляды людей на правду, но и нажить врага в лице так называемого «менеджера» Бога – Тапасви-джи…-- --Релиз-группа:
Перевод и редакция: (Honey&Haseena) (спасибо!)--Качество видео: DVDRip
Формат видео: AVI-Видео: XviD, 720х304, 1203 kbps, 24 fps
Аудио: AC3, 48.0 KHz, 448 Kbps, 6 ch
Субтитры: hardsub (вшитые в картинку)-- -
-
MediaInfo
Общее
Полное имя : G:\PiKey.2014.DVDRip.XviD.HoneyHaseena.avi
Формат : AVI
Формат/Информация : Audio Video Interleave
Размер файла : 1,45 Гбайт
Продолжительность : 2 ч. 32 м.
Общий поток : 1360 Кбит/сек
Программа кодирования : VirtualDubMod 1.5.10.2 (build 2542/release)
Библиотека кодирования : VirtualDubMod build 2542/release
Видео
Идентификатор : 0
Формат : MPEG-4 Visual
Профиль формата : Advanced Simple@L5
Параметр BVOP формата : 1
Параметр QPel формата : Нет
Параметр GMC формата : Без точки перехода
Параметр матрицы формата : Default (H.263)
Режим смешивания : Сжатый битовый поток
Идентификатор кодека : XVID
Идентификатор кодека/Подсказка : XviD
Продолжительность : 2 ч. 32 м.
Битрейт : 1203 Кбит/сек
Ширина : 720 пикселей
Высота : 304 пикселя
Соотношение сторон : 2,35:1
Частота кадров : 24,000 кадра/сек
Цветовое пространство : YUV
Субдискретизация насыщенности : 4:2:0
Битовая глубина : 8 бит
Тип развёртки : Прогрессивная
Метод сжатия : С потерями
Бит/(Пиксели*Кадры) : 0.215
Размер потока : 1,20 Гбайт (83%)
Библиотека кодирования : XviD 1.1.2 (UTC 2006-11-01)
Аудио
Идентификатор : 1
Формат : AC-3
Формат/Информация : Audio Coding 3
Расширение режима : CM (complete main)
Параметр Endianness формата : Big
Идентификатор кодека : 2000
Продолжительность : 2 ч. 32 м.
Вид битрейта : Постоянный
Битрейт : 448 Кбит/сек
Каналы : 6 каналов
Расположение каналов : Front: L C R, Side: L R, LFE
Частота : 48,0 КГц
Битовая глубина : 16 бит
Метод сжатия : С потерями
Размер потока : 244 Мбайт (16%)
Выравнивание : Разделение по промежуткам
Продолжительность промежутка : 64 мс. (1,53 видеокадра)
Время предзагрузки промежутка : 500 мс.

-
Скриншот c названием фильма
-
Скриншоты
-
-
Скачать

Скачать торрент! ПиКей / Ал-Каш / PK (Раджкумар Хирани / Rajkumar Hirani) [2014, Индия, Фэнтези, драма, мелодрама, комедия, детектив, DVDRip] Sub Rus (Honey&Haseena) + Original (hindi)

Как скачивать? · Что такое торрент? · Рейтинг и ограничения

Сайт не распространяет и не хранит электронные версии произведений, а лишь предоставляет доступ к создаваемому пользователями каталогу ссылок на торрент-файлы, которые содержат только списки хеш-сумм

[Профиль] [ЛС]
Показать сообщения:    
Ответить на тему

Текущее время: Сегодня 18:02

Часовой пояс: GMT + 4



Вы не можете начинать темы
Вы не можете отвечать на сообщения
Вы не можете редактировать свои сообщения
Вы не можете удалять свои сообщения
Вы не можете голосовать в опросах
Вы не можете прикреплять файлы к сообщениям
Вы не можете скачивать файлы