ПиКей / Ал-Каш / PK (Раджкумар Хирани / Rajkumar Hirani) [2014, Индия, Фэнтези, драма, мелодрама, комедия, детектив, HDRip] DVO (DeadSno & den904) + Sub Rus (песни)

Ответить на тему
 
Автор Сообщение

user ®

Стаж: 12 лет

Сообщений: 15092

Пост Пост: #1 от 11-Янв-2015 18:21

[Цитировать]

ПиКей / PK
-Страна: Индия
Жанр: Фэнтези, драма, мелодрама, комедия, детектив
Год выпуска: 2014
Продолжительность: 02:32:18--Перевод: Любительский (двухголосый закадровый) - DeadSno & den904
Субтитры: Есть (только песни)
Перевод и редакция: Honey&Haseena--Режиссер: Раджкумар Хирани / Rajkumar Hirani-В ролях: Аамир Кхан, Анушка Шарма, Санджай Датт, Боман Ирани, Саурабх Шукла, Сушант Сингх Раджпут, Парикшит Сахни, Амардип Джа, Рима Дебнатх, Диру Дривэди--Описание: ПиКей, что в переводе означает «пьяный» - прозвище, которое получил инопланетянин, прилетевший на нашу Землю, чтобы её исследовать. На его планете – никто не врёт, но на нашей - дела обстоят иначе. В первый же день, у него крадут пульт управления, который был единственным связывающим звеном между ним и его родной планетой. Отчаявшийся в поисках пришелец, взывает к Богу и просит помочь ему вернуться домой. Но так и не получив ответа, он решает, что не был услышан своим Создателем и уже пора самому отправиться к нему. Весьма необычное поведение для землянина замечает телерепортёр Джаггу. Узнав его историю, девушка решается помочь бедолаге, тем более, что за время пребывания на Земле, он не только успел изменить убеждения и взгляды людей на правду, но и нажить врага в лице так называемого «менеджера» Бога – Тапасви-джи…(c) Honey--Качество видео: HDRip (исх. BDRip 1080p)
Формат видео: AVI-Видео: 688x288 (2.39:1), 24.000 fps, XviD build 50 ~1233 kbps avg, 0.26 bit/pixel
Аудио: 48 kHz, МР3 Dolby Digital, 2/0 (L,R) ch, ~128 kbps
Формат субтитров: hardsub (неотключаемые, вшитые в картинку)--Сэмпл / Sample--Озвучивание: DeadSno & den904 (спасибо!)
Перевод на русский язык: Honey&Haseena (спасибо!)
Риппер: soso4eg-- -
-
-Скриншот с названием:
-
Скриншоты:
-
MI
General
Complete name : K:\Pikey.2014.HDRip.XviD.LDVO-soso4eg.avi
Format : AVI
Format/Info : Audio Video Interleave
File size : 1.46 GiB
Duration : 2h 32mn
Overall bit rate : 1 371 Kbps
Movie name : PK.2014.HDRip.XviD.LDVO-soso4eg
Director : soso4eg
Writing application : VirtualDubMod 1.5.10.2 (build 2540/release)
Original source form/Name : Hindi
Copyright : специально для BitTorrent трекер *** (ex torrents.ru)
Comment : пер.LDVO (Колобок) по суб. Honey&Haseena
Video
ID : 0
Format : MPEG-4 Visual
Format profile : Advanced Simple@L5
Format settings, BVOP : 2
Format settings, QPel : No
Format settings, GMC : No warppoints
Format settings, Matrix : Default (MPEG)
Codec ID : XVID
Codec ID/Hint : XviD
Duration : 2h 32mn
Bit rate : 1 234 Kbps
Width : 688 pixels
Height : 288 pixels
Display aspect ratio : 2.40:1
Frame rate : 24.000 fps
Color space : YUV
Chroma subsampling : 4:2:0
Bit depth : 8 bits
Scan type : Progressive
Compression mode : Lossy
Bits/(Pixel*Frame) : 0.259
Stream size : 1.31 GiB (90%)
Writing library : XviD 1.2.1 (UTC 2008-12-04)
Audio
ID : 1
Format : MPEG Audio
Format version : Version 1
Format profile : Layer 3
Codec ID : 55
Codec ID/Hint : MP3
Duration : 2h 32mn
Bit rate mode : Constant
Bit rate : 128 Kbps
Channel(s) : 2 channels
Sampling rate : 48.0 KHz
Compression mode : Lossy
Stream size : 139 MiB (9%)
Alignment : Aligned on interleaves
Interleave, duration : 42 ms (1.00 video frame)
Interleave, preload duration : 504 ms
Writing library : LAME3.98r
Encoding settings : -m s -V 4 -q 2 -lowpass 17 -b 128
-
Скачать

Скачать торрент! ПиКей / Ал-Каш / PK (Раджкумар Хирани / Rajkumar Hirani) [2014, Индия, Фэнтези, драма, мелодрама, комедия, детектив, HDRip] DVO (DeadSno & den904) + Sub Rus (песни)

Как скачивать? · Что такое торрент? · Рейтинг и ограничения

Сайт не распространяет и не хранит электронные версии произведений, а лишь предоставляет доступ к создаваемому пользователями каталогу ссылок на торрент-файлы, которые содержат только списки хеш-сумм

[Профиль] [ЛС]
Показать сообщения:    
Ответить на тему

Текущее время: Сегодня 12:03

Часовой пояс: GMT + 4



Вы не можете начинать темы
Вы не можете отвечать на сообщения
Вы не можете редактировать свои сообщения
Вы не можете удалять свои сообщения
Вы не можете голосовать в опросах
Вы не можете прикреплять файлы к сообщениям
Вы не можете скачивать файлы