Черный ящик / La Boîte noire (Ришар Берри / Richard Berry) [2005, Франция, триллер, детектив, мистика, BDRip 720p] MVO + DVO (CP Digital) + Sub Rus + Original Fre

Ответить на тему
 
Автор Сообщение

user ®

Стаж: 7 лет 7 месяцев

Сообщений: 20008

Пост Пост: #1 от 11-Янв-2015 18:21

[Цитировать]

Черный ящик / La Boîte noire
Страна: Франция
Жанр: триллер, детектив, мистика
Год выпуска: 2005
Продолжительность: 01:27:35
Перевод 1: Профессиональный (многоголосый закадровый)
Перевод 2: Профессиональный (двухголосый закадровый) CP Digital
Cубтитры: русские, английские
Оригинальная аудиодорожка: французский
Режиссер: Ришар Берри / Richard Berry
В ролях: Хосе Гарсиа, Марион Котийяр, Мишель Дюшоссуа, Бернар Ле Кок, Мариса Борини
Описание: После ужасной автомобильной аварии, которая должны была стоить ему жизни, Артур Зелигман несколько часов пребывает в коме, во время которой бредит вслух. А сиделка старательно записывает его бред в отдельный блокнот, который впоследствии вручает самому пострадавшему.
И тогда на него обрушивается лавина вопросов, самый простой из которых — а что он делал ночью на той дороге близ Шербура? С этого момента для Артура начинается самое невероятное приключение его едва не оборвавшейся жизни.

Сэмпл: http://multi-up.com/1025145
Тип релиза: BDRip 720p (рип от DON)
Контейнер: MKV
Видео: AVC (x264), 1280x544 (2.35:1) 24,000 fps, 7157 Kbps, 0.428 bpp
Аудио 1: Русский; AC3; 192 Kbps; CBR; 2 ch; 48 khz | MVO |
Аудио 2: Русский; AC3; 448 Kbps; CBR; 6 ch; 48 khz | DVO CP Digital |
Аудио 3: Французский; AC3; 640 Kbps; CBR; 6 ch; 48 khz
Формат субтитров: softsub (SRT)
MediaInfo
General
Unique ID : 237026213478799001606484369742822652599 (0xB25196953745A9B3A8237EE1093C3AB7)
Complete name : J:\La.boîte.noire.2005.720p.BluRay.DD5.1.x264-DON.mkv
Format : Matroska
Format version : Version 4 / Version 2
File size : 5.27 GiB
Duration : 1h 27mn
Overall bit rate : 8 609 Kbps
Encoded date : UTC 2015-01-07 20:00:13
Writing application : mkvmerge v6.4.1 ('Omega Point') built on Sep 16 2013 22:05:10
Writing library : libebml v1.3.0 + libmatroska v1.4.1
Video
ID : 1
Format : AVC
Format/Info : Advanced Video Codec
Format profile : High@L4.1
Format settings, CABAC : Yes
Format settings, ReFrames : 12 frames
Codec ID : V_MPEG4/ISO/AVC
Duration : 1h 27mn
Bit rate : 7 157 Kbps
Width : 1 280 pixels
Height : 544 pixels
Display aspect ratio : 2.35:1
Frame rate mode : Constant
Frame rate : 24.000 fps
Color space : YUV
Chroma subsampling : 4:2:0
Bit depth : 8 bits
Scan type : Progressive
Bits/(Pixel*Frame) : 0.428
Stream size : 4.38 GiB (83%)
Writing library : x264 core 142 r2409kMod d6b4e63
Encoding settings : cabac=1 / ref=12 / deblock=1:-3:-3 / analyse=0x3:0x133 / me=umh / subme=10 / psy=1 / fade_compensate=0.00 / psy_rd=1.05:0.00 / mixed_ref=1 / me_range=24 / chroma_me=1 / trellis=2 / 8x8dct=1 / cqm=0 / deadzone=21,11 / fast_pskip=0 / chroma_qp_offset=-2 / threads=12 / lookahead_threads=2 / sliced_threads=0 / nr=0 / decimate=1 / interlaced=0 / bluray_compat=0 / constrained_intra=0 / fgo=0 / bframes=9 / b_pyramid=2 / b_adapt=2 / b_bias=0 / direct=3 / weightb=1 / open_gop=0 / weightp=2 / keyint=241 / keyint_min=24 / scenecut=40 / intra_refresh=0 / rc_lookahead=60 / rc=crf / mbtree=0 / crf=15.8000 / qcomp=0.75 / qpmin=0 / qpmax=69 / qpstep=4 / vbv_maxrate=50000 / vbv_bufsize=62500 / crf_max=0.0 / nal_hrd=none / filler=0 / ip_ratio=1.40 / pb_ratio=1.30 / aq=1:0.80 / zones=119853,126088,q=26
Language : English
Default : Yes
Forced : No
Audio #1
ID : 2
Format : AC-3
Format/Info : Audio Coding 3
Mode extension : CM (complete main)
Format settings, Endianness : Big
Codec ID : A_AC3
Duration : 1h 27mn
Bit rate mode : Constant
Bit rate : 192 Kbps
Channel(s) : 2 channels
Channel positions : Front: L R
Sampling rate : 48.0 KHz
Bit depth : 16 bits
Compression mode : Lossy
Stream size : 120 MiB (2%)
Title : MVO
Language : Russian
Default : Yes
Forced : No
Audio #2
ID : 3
Format : AC-3
Format/Info : Audio Coding 3
Mode extension : CM (complete main)
Format settings, Endianness : Big
Codec ID : A_AC3
Duration : 1h 27mn
Bit rate mode : Constant
Bit rate : 448 Kbps
Channel(s) : 6 channels
Channel positions : Front: L C R, Side: L R, LFE
Sampling rate : 48.0 KHz
Bit depth : 16 bits
Compression mode : Lossy
Stream size : 281 MiB (5%)
Title : DVO
Language : Russian
Default : No
Forced : No
Audio #3
ID : 4
Format : AC-3
Format/Info : Audio Coding 3
Mode extension : CM (complete main)
Format settings, Endianness : Big
Codec ID : A_AC3
Duration : 1h 27mn
Bit rate mode : Constant
Bit rate : 640 Kbps
Channel(s) : 6 channels
Channel positions : Front: L C R, Side: L R, LFE
Sampling rate : 48.0 KHz
Bit depth : 16 bits
Compression mode : Lossy
Stream size : 401 MiB (7%)
Language : French
Default : No
Forced : No
Text #1
ID : 5
Format : UTF-8
Codec ID : S_TEXT/UTF8
Codec ID/Info : UTF-8 Plain Text
Language : Russian
Default : No
Forced : No
Text #2
ID : 6
Format : UTF-8
Codec ID : S_TEXT/UTF8
Codec ID/Info : UTF-8 Plain Text
Language : English
Default : No
Forced : No
Menu
00:00:00.000 : :00:00:00.000
00:06:59.250 : :00:06:59.250
00:15:16.250 : :00:15:16.250
00:19:54.500 : :00:19:54.500
00:30:35.750 : :00:30:35.750
00:37:49.000 : :00:37:49.000
00:46:05.500 : :00:46:05.500
00:52:20.000 : :00:52:20.000
00:58:23.000 : :00:58:23.000
01:07:34.000 : :01:07:34.000
01:15:19.375 : :01:15:19.375
01:21:03.500 : :01:21:03.500
01:23:16.000 : :01:23:16.000
Скриншоты
Скачать

Скачать торрент!

Как скачивать? · Что такое торрент? · Рейтинг и ограничения

Сайт не распространяет и не хранит электронные версии произведений, а лишь предоставляет доступ к создаваемому пользователями каталогу ссылок на торрент-файлы, которые содержат только списки хеш-сумм

[Профиль] [ЛС]
Показать сообщения:    
Ответить на тему

Текущее время: Сегодня 09:50

Часовой пояс: GMT + 4



Вы не можете начинать темы
Вы не можете отвечать на сообщения
Вы не можете редактировать свои сообщения
Вы не можете удалять свои сообщения
Вы не можете голосовать в опросах
Вы не можете прикреплять файлы к сообщениям
Вы не можете скачивать файлы