Хрустальная Фея и Волшебный Кактус и 2012 / Кристал Фэйри и Волшебный Кактус и 2012 / Crystal Fairy & The Magical Cactus And 2012 (Себастьян Сильва / Sebastian Silva) [2013, Чили, психоделическое роуд-муви, BDRip 720p]

Ответить на тему
 
Автор Сообщение

user ®

Стаж: 7 лет 7 месяцев

Сообщений: 20008

Пост Пост: #1 от 11-Янв-2015 18:21

[Цитировать]

Хрустальная Фея и Волшебный Кактус и 2012
Кристал Фэйри и Волшебный Кактус и 2012
Crystal Fairy & The Magical Cactus And 2012
Страна: Чили
Жанр: психоделическое роуд-муви
Год выпуска: 2013
Продолжительность: 01:38:39
Перевод: Любительский (многоголосый закадровый) Black Street Records
Cубтитры: русские Perevodman, , Eng
Оригинальная аудиодорожка: английский + испанский
Перевод - Perevodman
Озвучили - Евгений "Fat Chop", Евгений Фадеев, Василий Сиприков, Оля Норкс, Дарья Иовенко
Работа со Звуком - Евгений "Fat Chop"
Режиссер: Себастьян Сильва / Sebastian Silva / Sebastián Silva
В ролях: Майкл Сера, Габи Хоффманн, Хуан Андрес Сильва, Аугусто Силва, Хосе Мигель Сильва, Грасия Аристия, Мануэла Бальдовино
Описание:
Путешествие группы парней за мескалиновым кактусом Сан-Педро в поисках новых ощущений. По пути Джэйми (Майкл Сера) встретилась престарелая хиппи - Хрустальная Фея и поездка преобретала совсем другой поворот!
Сэмпл: http://sendfile.su/1070982
Тип релиза: BDRip 720p
Контейнер: MKV
Видео: MPEG4 AVC, 4829 Кбит/с, 1280x536 (2,40:1), 23,976 fps
Аудио 1: DTS, 1509 kb/s (6 ch), 48 kHz, 24 bit | Rus MVO Black Street Records
Аудио 2: DTS, 1509 kb/s (6 ch), 48 kHz, 24 bit | Eng

MediaInfo
Общее
Уникальный идентификатор : 196224886542176260604383927903384386014 (0x939F89D9FE29B73FA5B8C745470639DE)
Полное имя : Хрустальная Фея И Волшебный Кактус и 2012 (2013).mkv
Формат : Matroska
Версия формата : Version 4 / Version 2
Размер файла : 5,41 Гбайт
Продолжительность : 1 ч. 38 м.
Общий поток : 7851 Кбит/сек
Дата кодирования : UTC 2015-01-07 16:28:13
Программа кодирования : mkvmerge v6.7.0 ('Back to the Ground') 64bit built on Jan 8 2014 15:10:52
Библиотека кодирования : libebml v1.3.0 + libmatroska v1.4.1
Attachements : Poster.jpg
Видео
Идентификатор : 1
Формат : AVC
Формат/Информация : Advanced Video Codec
Профиль формата : High@L4.1
Параметр CABAC формата : Да
Параметр ReFrames формата : 5 кадров
Идентификатор кодека : V_MPEG4/ISO/AVC
Продолжительность : 1 ч. 38 м.
Битрейт : 4829 Кбит/сек
Ширина : 1280 пикселей
Высота : 536 пикселей
Соотношение сторон : 2,40:1
Режим частоты кадров : Постоянный
Частота кадров : 23,976 кадра/сек
Цветовое пространство : YUV
Субдискретизация насыщенности : 4:2:0
Битовая глубина : 8 бит
Тип развёртки : Прогрессивная
Бит/(Пиксели*Кадры) : 0.294
Размер потока : 3,22 Гбайт (60%)
Заголовок : X264
Библиотека кодирования : x264 core 140 r2377 1ca7bb9
Настройки программы : cabac=1 / ref=5 / deblock=1:0:0 / analyse=0x3:0x133 / me=umh / subme=7 / psy=1 / psy_rd=1.00:0.00 / mixed_ref=1 / me_range=16 / chroma_me=1 / trellis=1 / 8x8dct=1 / cqm=0 / deadzone=21,11 / fast_pskip=0 / chroma_qp_offset=-2 / threads=18 / lookahead_threads=3 / sliced_threads=0 / nr=0 / decimate=1 / interlaced=0 / bluray_compat=0 / constrained_intra=0 / bframes=3 / b_pyramid=2 / b_adapt=1 / b_bias=0 / direct=1 / weightb=1 / open_gop=0 / weightp=2 / keyint=250 / keyint_min=23 / scenecut=40 / intra_refresh=0 / rc_lookahead=40 / rc=2pass / mbtree=1 / bitrate=4829 / ratetol=1.0 / qcomp=0.60 / qpmin=0 / qpmax=69 / qpstep=4 / cplxblur=20.0 / qblur=0.5 / ip_ratio=1.40 / aq=1:1.00
Язык : English
Default : Да
Forced : Нет
Аудио #1
Идентификатор : 2
Формат : DTS
Формат/Информация : Digital Theater Systems
Режим : 16
Параметр Endianness формата : Big
Идентификатор кодека : A_DTS
Продолжительность : 1 ч. 38 м.
Вид битрейта : Постоянный
Битрейт : 1509 Кбит/сек
Каналы : 6 каналов
Расположение каналов : Front: L C R, Side: L R, LFE
Частота : 48,0 КГц
Битовая глубина : 24 бит
Метод сжатия : С потерями
Размер потока : 1,04 Гбайт (19%)
Заголовок : Black Street Records rus
Язык : Russian
Default : Да
Forced : Нет
Аудио #2
Идентификатор : 3
Формат : DTS
Формат/Информация : Digital Theater Systems
Режим : 16
Параметр Endianness формата : Big
Идентификатор кодека : A_DTS
Продолжительность : 1 ч. 38 м.
Вид битрейта : Постоянный
Битрейт : 1509 Кбит/сек
Каналы : 6 каналов
Расположение каналов : Front: L C R, Side: L R, LFE
Частота : 48,0 КГц
Битовая глубина : 24 бит
Метод сжатия : С потерями
Размер потока : 1,04 Гбайт (19%)
Заголовок : English DTS
Язык : English
Default : Нет
Forced : Нет
Текст #1
Идентификатор : 4
Формат : UTF-8
Идентификатор кодека : S_TEXT/UTF8
Идентификатор кодека/Информация : UTF-8 Plain Text
Заголовок : Rus_full-perevodman-
Default : Нет
Forced : Нет
Текст #2
Идентификатор : 5
Формат : UTF-8
Идентификатор кодека : S_TEXT/UTF8
Идентификатор кодека/Информация : UTF-8 Plain Text
Заголовок : English
Язык : English
Default : Нет
Forced : Нет
Меню
00:00:00.000 : en:00:00:00.000
00:09:18.349 : en:00:09:18.349
00:16:43.002 : en:00:16:43.002
00:24:22.378 : en:00:24:22.378
00:30:27.701 : en:00:30:27.701
00:38:47.700 : en:00:38:47.700
00:46:50.933 : en:00:46:50.933
00:54:04.700 : en:00:54:04.700
01:01:39.279 : en:01:01:39.279
01:11:43.925 : en:01:11:43.925
01:23:50.567 : en:01:23:50.567
01:35:58.044 : en:01:35:58.044
Оригинальный размер локализованных постеров Скриншоты
Скачать

Скачать торрент!

Как скачивать? · Что такое торрент? · Рейтинг и ограничения

Сайт не распространяет и не хранит электронные версии произведений, а лишь предоставляет доступ к создаваемому пользователями каталогу ссылок на торрент-файлы, которые содержат только списки хеш-сумм

[Профиль] [ЛС]
Показать сообщения:    
Ответить на тему

Текущее время: Сегодня 06:08

Часовой пояс: GMT + 4



Вы не можете начинать темы
Вы не можете отвечать на сообщения
Вы не можете редактировать свои сообщения
Вы не можете удалять свои сообщения
Вы не можете голосовать в опросах
Вы не можете прикреплять файлы к сообщениям
Вы не можете скачивать файлы