Прежде чем я усну / Before I Go to Sleep (Роуэн Жоффе / Rowan Joffe) [2014, Великобритания, Франция, Швеция, триллер, детектив, драма, BDRemux 1080p] [UK Transfer] Dub + Sub Eng + Original Eng

Ответить на тему
 
Автор Сообщение

user ®

Стаж: 7 лет 7 месяцев

Сообщений: 20008

Пост Пост: #1 от 11-Янв-2015 18:21

[Цитировать]

Прежде чем я усну / Before I Go to Sleep Страна: Великобритания, Франция, Швеция
Студия: Film i Vast, Filmgate Films, Millennium Films, Scott Free Productions, Studio Canal
Жанр: триллер, детектив, драма
Год выпуска: 2014
Продолжительность: 01:31:52
Перевод: Профессиональный (дублированный) Blu-ray-RUS
Cубтитры: английские
Оригинальная аудиодорожка: английский
Режиссер: Роуэн Жоффе / Rowan Joffe
В ролях: Николь Кидман, Колин Ферт, Марк Стронг, Энн-Мэри Дафф, Дин-Чарльз Чепмен, Джин Лу, Адам Леви, Льюэлла Гидеон, Чарли Гарднер, Рози Макферсон, Кевин Хадсон
Описание: История о женщине, потерявшей память: каждое утро последние двадцать лет просто исчезают из ее воспоминаний, и каждое утро ей приходится по крупицам восстанавливать собственную жизнь.

Тип релиза: BDRemux 1080p
Контейнер: MKV
Исходник:Before I Go to Sleep 2014 1080p Blu-ray AVC DTS-HD MA 5.1-LAZERS
Видео: AVC, 1920x1080, 29978 kbps, 24.000fps
Аудио 1: Russian: 48 kHz, DTS, 3/2 (L,C,R,l,r) + LFE ch, ~1536.00 kbps avg |Blu-ray|
Аудио 2: English: DTS-HD Master Audio English / 5.1 / 48 kHz / 2979 kbps / 24-bit (DTS Core: 5.1 / 48 kHz / 768 kbps / 24-bit) |Original||Original|
Чаптеры:есть

MediaInfo
General
Unique ID : 179961046607587329693670780692821306853 (0x87633CA21A240CE68217AD377621EDE5)
Complete name : D:\рипы\Before.I.Go.To.Sleep.2014.REMUX.1080p.DTS-HD.MA.5.1-Talian-.mkv
Format : Matroska
Format version : Version 2
File size : 22.1 GiB
Duration : 1h 31mn
Overall bit rate mode : Variable
Overall bit rate : 34.4 Mbps
Movie name : Before I Go to Sleep-Talian-
Encoded date : UTC 2015-01-09 13:14:45
Writing application : mkvmerge v5.7.0 ('The Whirlwind') built on Jul 8 2012 20:08:51
Writing library : libebml v1.2.3 + libmatroska v1.3.0
Video
ID : 1
Format : AVC
Format/Info : Advanced Video Codec
Format profile : High@L4.1
Format settings, CABAC : Yes
Format settings, ReFrames : 3 frames
Codec ID : V_MPEG4/ISO/AVC
Duration : 1h 31mn
Bit rate mode : Variable
Bit rate : 30.3 Mbps
Maximum bit rate : 35.0 Mbps
Width : 1 920 pixels
Height : 1 080 pixels
Display aspect ratio : 16:9
Frame rate : 24.000 fps
Standard : NTSC
Color space : YUV
Chroma subsampling : 4:2:0
Bit depth : 8 bits
Scan type : Progressive
Bits/(Pixel*Frame) : 0.610
Stream size : 19.5 GiB (88%)
Title : BDRemux
Language : English
Default : Yes
Forced : No
Color primaries : BT.709-5, BT.1361, IEC 61966-2-4, SMPTE RP177
Transfer characteristics : BT.709-5, BT.1361
Matrix coefficients : BT.709-5, BT.1361, IEC 61966-2-4 709, SMPTE RP177
Audio #1
ID : 2
Format : DTS
Format/Info : Digital Theater Systems
Codec ID : A_DTS
Duration : 1h 31mn
Bit rate mode : Constant
Bit rate : 1 510 Kbps
Channel(s) : 6 channels
Channel positions : Front: L C R, Side: L R, LFE
Sampling rate : 48.0 KHz
Bit depth : 24 bits
Compression mode : Lossy
Stream size : 993 MiB (4%)
Title : DUB-Blu-ray
Language : Russian
Default : Yes
Forced : No
Audio #2
ID : 3
Format : DTS
Format/Info : Digital Theater Systems
Format profile : MA / Core
Codec ID : A_DTS
Duration : 1h 31mn
Bit rate mode : Variable
Bit rate : 1 886 Kbps / 755 Kbps
Channel(s) : 6 channels
Channel positions : Front: L C R, Side: L R, LFE
Sampling rate : 48.0 KHz
Bit depth : 24 bits
Compression mode : Lossless / Lossy
Title : Original
Language : English
Default : No
Forced : No
Text
ID : 4
Format : UTF-8
Codec ID : S_TEXT/UTF8
Codec ID/Info : UTF-8 Plain Text
Title : Sub
Language : English
Default : No
Forced : No
Menu
00:00:00.000 : en:Chapter 1
00:08:30.500 : en:Chapter 2
00:14:14.458 : en:Chapter 3
00:21:55.541 : en:Chapter 4
00:28:16.458 : en:Chapter 5
00:34:40.083 : en:Chapter 6
00:41:49.041 : en:Chapter 7
00:49:32.875 : en:Chapter 8
00:57:15.541 : en:Chapter 9
01:04:23.333 : en:Chapter 10
01:09:27.457 : en:Chapter 11
01:18:11.250 : en:Chapter 12
Сравнение исходников
BD UK | BD RUS
Скриншоты
Скачать

Скачать торрент!

Как скачивать? · Что такое торрент? · Рейтинг и ограничения

Сайт не распространяет и не хранит электронные версии произведений, а лишь предоставляет доступ к создаваемому пользователями каталогу ссылок на торрент-файлы, которые содержат только списки хеш-сумм

[Профиль] [ЛС]
Показать сообщения:    
Ответить на тему

Текущее время: Сегодня 13:38

Часовой пояс: GMT + 4



Вы не можете начинать темы
Вы не можете отвечать на сообщения
Вы не можете редактировать свои сообщения
Вы не можете удалять свои сообщения
Вы не можете голосовать в опросах
Вы не можете прикреплять файлы к сообщениям
Вы не можете скачивать файлы