Теория убийств / Kill Theory (Крис Мур / Chris Moore) [2009, США, ужасы, триллер, BDRemux 1080p] Dub + MVO + Original (Eng) + Sub (Rus, Eng)

Ответить на тему
 
Автор Сообщение

user ®

Стаж: 7 лет 7 месяцев

Сообщений: 20008

Пост Пост: #1 от 11-Янв-2015 18:21

[Цитировать]

Теория убийств / Kill Theory
Страна: США
Жанр: ужасы, триллер
Год выпуска: 2009
Продолжительность: 01:25:14
Перевод: 1. Профессиональный (дублированный)
2. Профессиональный (многоголосый закадровый)
Оригинальная аудиодорожка: английский
Cубтитры: русские, английские-Режиссер:Крис Мур / Chris Moore
В ролях: Дон МакМанус (Dr. Karl Truftin) [Василий Дахненко], Райанн Дузич (Amber) [Марианна Шульц], Тедди Данн (Brent) [Илья Хвостиков], Дэниел Фрэнзиси (Freddy) [Михаил Георгиу], Агнес Брукнер (Jennifer) [Полина Щербакова], Патрик Флюгер (Michael) [Пётр Иващенко], Стеффи Викенс (Nicole) [Наталья Фищук], Тео Росси (Carlos) [Андрей Бархударов], Тэрин Мэннинг (Alex) [Рамиля Искандер], Кевин Гейдж (The Killer) [Александр Новиков]-Описание: Студенты, в уединенном домике празднующие окончание семестра, становятся невольными участниками игры садиста-маньяка, вынуждающего их убивать друг друга ради выживания.-СЭМПЛ
Тип релиза: BDRemux 1080p
Ремукс на основе: Kill Theory 2009 DUAL COMPLETE BLURAY iFPD (спасибо Vovec-800)
Контейнер: MKV
Видео: 1920x1080p / 23.976 fps / 16:9 / High Profile 4.1 / AVC / ~ 26.3 Mbps
Аудио 1: AC3 / 448 Kbps / 5.1 / 48 kHz / Russian / Dub
Аудио 2: AC3 / 448 Kbps / 5.1 / 48 kHz / Russian / MVO
Аудио 3: DTS Hi-Res / 3840 Kbps / 5.1 / 48 kHz (DTS Core: 1509 Kbps / 5.1 / 48 kHz) / English / original
Формат субтитров: softsub (SRT)-IMDB * КиноПоиск
MediaInfo
General
Complete name : Kill.Theory.2009.BDRemux.1080p.Dub.MVO.mkv
Format : Matroska
Format version : Version 2
File size : 18.8 GiB
Duration : 1h 25mn
Overall bit rate mode : Variable
Overall bit rate : 31.6 Mbps
Encoded date : UTC 2015-01-09 17:11:59
Writing application : mkvmerge v5.8.0 ('No Sleep / Pillow') built on Sep 2 2012 15:37:04
Writing library : libebml v1.2.3 + libmatroska v1.3.0
Video
ID : 1
Format : AVC
Format/Info : Advanced Video Codec
Format profile : High@L4.1
Format settings, CABAC : Yes
Format settings, ReFrames : 4 frames
Codec ID : V_MPEG4/ISO/AVC
Duration : 1h 25mn
Bit rate mode : Variable
Maximum bit rate : 33.0 Mbps
Width : 1 920 pixels
Height : 1 080 pixels
Display aspect ratio : 16:9
Frame rate mode : Constant
Frame rate : 23.976 fps
Color space : YUV
Chroma subsampling : 4:2:0
Bit depth : 8 bits
Scan type : Progressive
Title : Kill Theory 2009
Default : Yes
Forced : No
Color primaries : BT.709
Transfer characteristics : BT.709
Matrix coefficients : BT.709
Audio #1
ID : 2
Format : AC-3
Format/Info : Audio Coding 3
Mode extension : CM (complete main)
Format settings, Endianness : Big
Codec ID : A_AC3
Duration : 1h 25mn
Bit rate mode : Constant
Bit rate : 448 Kbps
Channel(s) : 6 channels
Channel positions : Front: L C R, Side: L R, LFE
Sampling rate : 48.0 KHz
Bit depth : 16 bits
Compression mode : Lossy
Stream size : 273 MiB (1%)
Title : RUS AC3 448 Kbps 6ch Dub
Language : Russian
Default : Yes
Forced : No
Audio #2
ID : 3
Format : AC-3
Format/Info : Audio Coding 3
Mode extension : CM (complete main)
Format settings, Endianness : Big
Codec ID : A_AC3
Duration : 1h 25mn
Bit rate mode : Constant
Bit rate : 448 Kbps
Channel(s) : 6 channels
Channel positions : Front: L C R, Side: L R, LFE
Sampling rate : 48.0 KHz
Bit depth : 16 bits
Compression mode : Lossy
Stream size : 273 MiB (1%)
Title : RUS AC3 448 Kbps 6ch MVO
Language : Russian
Default : No
Forced : No
Audio #3
ID : 4
Format : DTS
Format/Info : Digital Theater Systems
Codec ID : A_DTS
Duration : 1h 25mn
Channel(s) : 6 channels
Sampling rate : 48.0 KHz
Compression mode : Lossy
Title : ENG DTS Hi-Res 3840 Kbps 6ch original
Language : English
Default : No
Forced : No
Text #1
ID : 5
Format : UTF-8
Codec ID : S_TEXT/UTF8
Codec ID/Info : UTF-8 Plain Text
Title : RUS Sub
Language : Russian
Default : No
Forced : No
Text #2
ID : 6
Format : UTF-8
Codec ID : S_TEXT/UTF8
Codec ID/Info : UTF-8 Plain Text
Title : ENG Sub
Language : English
Default : No
Forced : No
Menu
00:00:00.000 : :Chapter 01
00:08:09.322 : :Chapter 02
00:16:17.185 : :Chapter 03
00:22:37.565 : :Chapter 04
00:27:55.424 : :Chapter 05
00:33:20.332 : :Chapter 06
00:38:17.921 : :Chapter 07
00:47:00.359 : :Chapter 08
00:55:40.963 : :Chapter 09
01:02:34.668 : :Chapter 10
01:10:51.831 : :Chapter 11
01:18:08.934 : :Chapter 12
Скриншот с названием Скриншоты
Скачать

Скачать торрент!

Как скачивать? · Что такое торрент? · Рейтинг и ограничения

Сайт не распространяет и не хранит электронные версии произведений, а лишь предоставляет доступ к создаваемому пользователями каталогу ссылок на торрент-файлы, которые содержат только списки хеш-сумм

[Профиль] [ЛС]
Показать сообщения:    
Ответить на тему

Текущее время: Сегодня 05:58

Часовой пояс: GMT + 4



Вы не можете начинать темы
Вы не можете отвечать на сообщения
Вы не можете редактировать свои сообщения
Вы не можете удалять свои сообщения
Вы не можете голосовать в опросах
Вы не можете прикреплять файлы к сообщениям
Вы не можете скачивать файлы