Александр и ужасный, кошмарный, нехороший, очень плохой день / Alexander and the Terrible, Horrible, No Good, Very Bad Day (Мигель Артета / Miguel Arteta) [2014, США, комедия, семейный, HDRip] Dub

Ответить на тему
 
Автор Сообщение

user ®

Стаж: 7 лет 7 месяцев

Сообщений: 20008

Пост Пост: #1 от 11-Янв-2015 18:21

[Цитировать]

Александр и ужасный, кошмарный, нехороший, очень плохой день / Alexander and the Terrible, Horrible, No Good, Very Bad Day-«А потом всё и случилось...»- Страна: США
Жанр: комедия, семейный
Год выпуска: 2014
Продолжительность: 01:12:57 (урезаны титры)-Перевод: Профессиональный (дублированный) line
Cубтитры: нет-Режиссер: Мигель Артета / Miguel Arteta
В ролях: Стив Карелл, Дженнифер Гарнер, Эд Оксенбульд, Дилан Миннетт, Кэррис Дорси, Элиз Варгас, Зоя Варгас, Сидни Фуллмер, Белла Торн, Меган Маллалли-Описание:Утро для Александра началось ужасно: жвачка, которая еще вечером была у него во рту, теперь запуталась в волосах, вставая с кровати, он поскользнулся на скейтборде и по ошибке бросил свой свитер в раковину, когда там была вода. Уже тогда можно было сказать, что это будет ужасный, страшный, нехороший, очень плохой день. Все валилось из рук и шло совсем не так, как хотелось бы. Что же делать в такой день? Например, можно подумать о путешествии в Австралию. Также можно обнаружить, что день такой плохой не только у тебя…- -Качество видео: HDRip (исходник неизвестен)
Формат видео: AVI
Видео: XviD, 720x400 (16:9), 25.000 fps, ~2349 kbps, 0.326 bit/pixel
Аудио: AC3, 48 kHz, ~384 kbps, Dolby Digital, 2/0 (L,R) ch-Знаете ли вы, что...
Фильм снят по одноименной книге Джудит Виорст, которая была опубликована в 1972 году. Прототипами главных героев стали сыновья Виорст: Александр, Энтони и Николас. Книга разошлась по миру тиражом более 2 миллионов экземпляров, получила статус «почетной детской книги» Американской ассоциации литераторов (ALA); писательница получила премию «признание заслуг» от Центра Джорджа Дж. Стоуна, премию «лучшая детская книга Джорджии» и стала одной из книг передачи «Радуга-читальня» (1983-2012), приучавшей юных телезрителей к чтению.-На главную роль Александра проходили прослушивание более 500 мальчиков.-Стив Карелл и Дженнифер Гарнер оба учились в Университете Денисона в Гранвилле, штат Огайо. Карелл окончил его в 1984-м году, а Гарнер — в 1994-м.-Режиссером фильма могла стать Лиза Холоденко, но она покинула проект в феврале 2013 года.-Когда учитель Александра выбирает страны для задания ученикам, он указывает на них на глобусе. Когда он делает это в третий раз, то называет Ливан, при этом указывая куда-то в район Аляски, Берингова пролива или же Восточной России.
MediaInfo
General
Format : AVI
Format/Info : Audio Video Interleave
File size : 1.40 GiB
Duration : 1h 12mn
Overall bit rate : 2 742 Kbps
Writing application : VirtualDubMod 1.5.10.3 (build 2550/release)
Writing library : VirtualDubMod build 2550/release
Video
ID : 0
Format : MPEG-4 Visual
Format profile : Advanced Simple@L5
Format settings, BVOP : 2
Format settings, QPel : No
Format settings, GMC : No warppoints
Format settings, Matrix : Default (H.263)
Muxing mode : Packed bitstream
Codec ID : XVID
Codec ID/Hint : XviD
Duration : 1h 12mn
Bit rate : 2 349 Kbps
Width : 720 pixels
Height : 400 pixels
Display aspect ratio : 16:9
Frame rate : 25.000 fps
Color space : YUV
Chroma subsampling : 4:2:0
Bit depth : 8 bits
Scan type : Progressive
Compression mode : Lossy
Bits/(Pixel*Frame) : 0.326
Stream size : 1.20 GiB (86%)
Writing library : XviD 65
Audio
ID : 1
Format : AC-3
Format/Info : Audio Coding 3
Mode extension : CM (complete main)
Format settings, Endianness : Big
Codec ID : 2000
Duration : 1h 12mn
Bit rate mode : Constant
Bit rate : 384 Kbps
Channel(s) : 2 channels
Channel positions : Front: L R
Sampling rate : 48.0 KHz
Bit depth : 16 bits
Compression mode : Lossy
Stream size : 200 MiB (14%)
Alignment : Split accross interleaves
Interleave, duration : 40 ms (1.00 video frame)
Interleave, preload duration : 500 ms
Скриншот c названием фильма Скриншоты
Скачать

Скачать торрент!

Как скачивать? · Что такое торрент? · Рейтинг и ограничения

Сайт не распространяет и не хранит электронные версии произведений, а лишь предоставляет доступ к создаваемому пользователями каталогу ссылок на торрент-файлы, которые содержат только списки хеш-сумм

[Профиль] [ЛС]
Показать сообщения:    
Ответить на тему

Текущее время: Сегодня 20:33

Часовой пояс: GMT + 4



Вы не можете начинать темы
Вы не можете отвечать на сообщения
Вы не можете редактировать свои сообщения
Вы не можете удалять свои сообщения
Вы не можете голосовать в опросах
Вы не можете прикреплять файлы к сообщениям
Вы не можете скачивать файлы